<?xml version="1.0" standalone="no"?>
<!DOCTYPE svg PUBLIC "-//W3C//DTD SVG 1.1//EN" "http://www.w3.org/Graphics/SVG/1.1/DTD/svg11.dtd" >
<svg>
<metadata>
Created by FontForge 20090914 at Mon Dec 21 23:43:49 2020
 By www-data
Copyright 2018 The Roboto Slab Project Authors (https://github.com/googlefonts/robotoslab)
</metadata>
<defs>
<font id="RobotoSlab-Bold" horiz-adv-x="0" >
  <font-face 
    font-family="Roboto Slab"
    font-weight="700"
    font-stretch="normal"
    units-per-em="2048"
    panose-1="0 0 0 0 0 0 0 0 0 0"
    ascent="1638"
    descent="-410"
    x-height="1082"
    cap-height="1456"
    bbox="-374.002 -555 2714 2146"
    underline-thickness="100"
    underline-position="-100"
    unicode-range="U+000D-U+FFFD"
  />
<missing-glyph horiz-adv-x="1038" 
d="M100 0v1456h838v-1456h-838zM154 54h730v1348h-730v-1348zM858 20l-738 1416h60l738 -1416h-60zM120 20l738 1416h60l-738 -1416h-60z" />
    <glyph glyph-name="fi" unicode="fi" horiz-adv-x="1337" 
d="M39 0v174.999l156 30v672h-161v205h161v74c0 136 41.5 240.833 124.5 314.5s199.833 110.5 350.5 110.5c52 0 103.333 -5.16699 154 -15.5s109.334 -25.166 176.001 -44.499l-42 -230c-46 14 -90 25.167 -132 33.5s-84 12.5 -126 12.5
c-72.667 0 -126.334 -15.333 -161.001 -46s-52 -75.667 -52 -135v-74h656v-877l155 -30v-175h-588v175l141 30v672h-364v-672l141 -30v-175h-589z" />
    <glyph glyph-name="fl" unicode="fl" horiz-adv-x="1421" 
d="M39 0v174.999l156 30v672h-136v205h136v47c0 144.667 43.667 256.167 131 334.5s210.333 117.5 369 117.5c57.333 0 114 -5.16699 170 -15.5s121 -25.166 195 -44.499h172v-1316l141 -30v-175h-574v175l141 30v1119c-39.333 8 -76.5 14.333 -111.5 19s-70.167 7 -105.5 7
c-80 0 -139.333 -18.667 -178 -56s-58 -92.333 -58 -165v-47h240v-205h-240v-672l141 -30v-175h-589z" />
    <glyph glyph-name=".notdef" horiz-adv-x="1038" 
d="M100 0v1456h838v-1456h-838zM154 54h730v1348h-730v-1348zM858 20l-738 1416h60l738 -1416h-60zM120 20l738 1416h60l-738 -1416h-60z" />
    <glyph glyph-name="CR" unicode="&#xd;" horiz-adv-x="502" 
 />
    <glyph glyph-name="space" unicode=" " horiz-adv-x="502" 
 />
    <glyph glyph-name="exclam" unicode="!" horiz-adv-x="507" 
d="M119 502v954h292v-954h-292zM119 0v256h292v-256h-292z" />
    <glyph glyph-name="quotedbl" unicode="&#x22;" horiz-adv-x="786" 
d="M139 1032v297v231h216v-255l-87 -273h-129zM476 1032v297v231h216v-255l-87 -273h-129z" />
    <glyph glyph-name="numbersign" unicode="#" horiz-adv-x="1198" 
d="M194 0l72 410h-227v169h256l51 290h-231v171h261l74 416h183l-73 -416h192l73 416h184l-74 -416h220v-171h-250l-51 -290h226v-169h-255l-72 -410h-183l72 410h-192l-72 -410h-184zM479 579h192l51 290h-192z" />
    <glyph glyph-name="dollar" unicode="$" horiz-adv-x="1107" 
d="M484 -214l-0.00195312 197c-82.667 8.66699 -156.667 31 -222 67s-116.166 87.167 -152.499 153.5s-53.833 148.166 -52.5 245.499l2 5h284c0 -59.333 9.5 -107.333 28.5 -144s44.833 -63.5 77.5 -80.5s70 -25.5 112 -25.5c40.667 0 75 7.33301 103 22
s49.167 35.5 63.5 62.5s21.5 58.5 21.5 94.5s-6.66699 67.333 -20 94s-35 50.667 -65 72s-70.333 41.666 -121 60.999c-98.667 36 -180.167 74.167 -244.5 114.5s-112.333 88.166 -144 143.499s-47.5 123 -47.5 203c0 112 35.833 203.833 107.5 275.5
s168.167 113.834 289.5 126.501v215h159v-218c116.667 -17.333 208.5 -66.166 275.5 -146.499s99.833 -184.833 98.5 -313.5l-3 -5h-284c0 78.667 -16.333 139.334 -49 182.001s-76.667 64 -132 64c-57.333 0 -100.166 -16.5 -128.499 -49.5s-42.5 -76.833 -42.5 -131.5
c0 -34.667 6.33301 -64.667 19 -90s34.167 -48.5 64.5 -69.5s71.833 -41.833 124.5 -62.5c98 -38.667 179.167 -78.5 243.5 -119.5s112.333 -88.667 144 -143s47.5 -121.166 47.5 -200.499c0 -115.333 -35.833 -207.833 -107.5 -277.5s-168.5 -110.834 -290.5 -123.501v-198
h-159z" />
    <glyph glyph-name="percent" unicode="%" horiz-adv-x="1429" 
d="M427 109l-142 75l711 1138l142 -75zM1064 -20c-66.667 0 -123.832 13.167 -171.499 39.5s-84.167 62.166 -109.5 107.499s-38 96.333 -38 153v77c0 56.667 12.5 107.667 37.5 153s61.333 81.166 109 107.499s104.5 39.5 170.5 39.5c66.667 0 123.5 -13 170.5 -39
s83.167 -61.667 108.5 -107s38 -96.666 38 -153.999v-77c0 -57.333 -12.5 -108.666 -37.5 -153.999s-60.833 -81 -107.5 -107s-103.334 -39 -170.001 -39zM1064 142c43.333 0 74.332 12.668 92.999 38.001s28 58.666 28 99.999v77c0 38 -10.667 70.5 -32 97.5
s-51.666 40.5 -90.999 40.5c-40 0 -70.5 -13.5 -91.5 -40.5s-31.5 -59.5 -31.5 -97.5v-77c0 -38 11.5 -70.5 34.5 -97.5s53.167 -40.5 90.5 -40.5zM367.001 800.001c-66 0 -122.832 13.002 -170.499 39.002s-84.167 61.5 -109.5 106.5s-38 96.167 -38 153.5v77
c0 57.333 12.5 108.666 37.5 153.999s61.167 81.166 108.5 107.499s104 39.5 170 39.5c67.333 0 124.5 -13 171.5 -39s83 -61.667 108 -107s37.5 -97 37.5 -155v-77c0 -57.333 -12.5 -108.5 -37.5 -153.5s-60.833 -80.5 -107.5 -106.5s-103.334 -39 -170.001 -39z
M367.002 962.003c38.667 0 68.667 13.167 90 39.5s32 58.833 32 97.5v77c0 38.667 -10.833 71.5 -32.5 98.5s-52.167 40.5 -91.5 40.5s-69.5 -13.5 -90.5 -40.5s-31.5 -59.833 -31.5 -98.5v-77c0 -38.667 10.667 -71.167 32 -97.5s52 -39.5 92 -39.5z" />
    <glyph glyph-name="ampersand" unicode="&#x26;" horiz-adv-x="1278" 
d="M521 -21c-96.667 0 -180.668 17.333 -252.001 52s-126.5 83 -165.5 145s-58.5 134 -58.5 216c0 75.333 20 140.833 60 196.5s100.667 112.5 182 170.5l10.5 8c3.66699 2.66699 7.16699 5 10.5 7c-45.333 61.333 -79.166 117.333 -101.499 168
s-33.5 102.334 -33.5 155.001c0 77.333 16.333 144.333 49 201s78.834 100.667 138.501 132s129.5 47 209.5 47c70.667 0 132.834 -15.167 186.501 -45.5s95.667 -70.833 126 -121.5s45.5 -107.334 45.5 -170.001c0 -65.333 -16.333 -125 -49 -179
s-77.334 -101.333 -134.001 -142l-93 -66l276 -322c24 40 42.667 83.333 56 130s20 96 20 148h218c0 -92 -11.333 -176.667 -34 -254s-57.334 -146 -104.001 -206l208 -244l-2 -5h-324l-77 89c-56.667 -36.667 -115 -64.167 -175 -82.5s-124.333 -27.5 -193 -27.5z
M535.999 203c35.333 0 70.667 4.49902 106 13.499s69.333 22.5 102 40.5l-300 348l-19 -13c-34 -32 -57.167 -63.167 -69.5 -93.5s-18.5 -60.833 -18.5 -91.5c0 -59.333 18.333 -108.166 55 -146.499s84.667 -57.5 144 -57.5zM520 910.999l85.998 56
c37.333 24 62.5 48.667 75.5 74s19.5 53 19.5 83c0 33.333 -12.167 63 -36.5 89s-56.166 39 -95.499 39c-43.333 0 -76.666 -14.5 -99.999 -43.5s-35 -65.167 -35 -108.5c0 -28.667 7.16699 -58.167 21.5 -88.5s35.833 -63.833 64.5 -100.5z" />
    <glyph glyph-name="quotesingle" unicode="'" horiz-adv-x="449" 
d="M139 1032v297v231h216v-255l-87 -273h-129z" />
    <glyph glyph-name="parenleft" unicode="(" horiz-adv-x="685" 
d="M585 -450c-64 27.333 -125.667 71.0049 -185 131.005s-112.333 134.333 -159 223s-83.667 189.167 -111 301.5s-41 233.833 -41 364.5v22c0 130.667 13.667 252.167 41 364.5s64.333 212.833 111 301.5s99.667 163 159 223s121 103.667 185 131h6l53 -146
c-43.333 -32.667 -83.833 -75.334 -121.5 -128.001s-70.5 -115.334 -98.5 -188.001s-49.833 -155.334 -65.5 -248.001s-23.5 -195.334 -23.5 -308.001v-26c0 -112.667 7.83301 -215.334 23.5 -308.001s37.5 -175.5 65.5 -248.5s60.833 -135.833 98.5 -188.5
s78.167 -96 121.5 -130l-53 -143h-6z" />
    <glyph glyph-name="parenright" unicode=")" horiz-adv-x="712" 
d="M115 -450l-54.001 143c43.333 32.667 83.5 75.5 120.5 128.5s69.667 115.833 98 188.5s50.5 155.667 66.5 249s24 196.333 24 309v26c0 112 -8.16699 214.5 -24.5 307.5s-38.666 176 -66.999 249s-61 136.333 -98 190s-76.833 96.834 -119.5 129.501l54 142h6
c64.667 -26.667 127.334 -70.667 188.001 -132s115.334 -137 164.001 -227s87.167 -190.833 115.5 -302.5s42.5 -231.167 42.5 -358.5v-22c0 -128 -14.167 -247.833 -42.5 -359.5s-66.833 -212.334 -115.5 -302.001s-103.334 -165.167 -164.001 -226.5
s-123.334 -105.333 -188.001 -132h-6z" />
    <glyph glyph-name="asterisk" unicode="*" horiz-adv-x="914" 
d="M628 579l-175 290l-173 -281l-152 106l208 272l-302 89l57 177l297 -123l-18 347h188l-20 -353l291 120l56 -180l-306 -89l200 -265z" />
    <glyph glyph-name="plus" unicode="+" horiz-adv-x="1098" 
d="M411 146v414h-362v252h362v394h277v-394h359v-252h-359v-414h-277z" />
    <glyph glyph-name="comma" unicode="," horiz-adv-x="503" 
d="M202 -364l-144.001 77.999c26 46.667 46 94.834 60 144.501s21 105.167 21 166.5v218h262l-1 -204c0 -78 -19.167 -152.5 -57.5 -223.5s-85.166 -130.833 -140.499 -179.5z" />
    <glyph glyph-name="hyphen" unicode="-" horiz-adv-x="815" 
d="M131 510v225h564v-225h-564z" />
    <glyph glyph-name="period" unicode="." horiz-adv-x="522" 
d="M129 0v256h291v-256h-291z" />
    <glyph glyph-name="slash" unicode="/" horiz-adv-x="796" 
d="M-23 -125l601 1581h269l-601 -1581h-269z" />
    <glyph glyph-name="zero" unicode="0" horiz-adv-x="1170" 
d="M591 -21c-152 0 -272.332 49.833 -360.999 149.5s-133 245.834 -133 438.501v321c0 192 44.167 338.167 132.5 438.5s208.166 150.5 359.499 150.5c150.667 0 270.5 -50.167 359.5 -150.5s133.5 -246.5 133.5 -438.5v-321c0 -192.667 -44.167 -338.834 -132.5 -438.501
s-207.833 -149.5 -358.5 -149.5zM591.001 203c65.333 0 115 26.667 149 80s51 138.666 51 255.999v379c0 116 -17.333 200.667 -52 254s-84.667 80 -150 80c-66 0 -116 -26.667 -150 -80s-51 -138 -51 -254v-379c0 -117.333 17.167 -202.666 51.5 -255.999
s84.833 -80 151.5 -80z" />
    <glyph glyph-name="one" unicode="1" horiz-adv-x="905" 
d="M65 0v175l246 30v986h-249v167l540 98v-1251l246 -30v-175h-783z" />
    <glyph glyph-name="two" unicode="2" horiz-adv-x="1136" 
d="M77 0l-0.000976562 191.002l472 507c48 54 85.667 101 113 141s46.833 76.5 58.5 109.5s17.5 65.833 17.5 98.5c0 56.667 -16.167 104.667 -48.5 144s-79.833 59 -142.5 59c-67.333 0 -118.333 -21.833 -153 -65.5s-52 -103.834 -52 -180.501h-284l-2 6
c-2 88 16.833 167.167 56.5 237.5s97 126.166 172 167.499s163.5 62 265.5 62c100 0 185.833 -17.833 257.5 -53.5s126.834 -85.5 165.501 -149.5s58 -138 58 -222c0 -58 -10.333 -112.5 -31 -163.5s-53 -104.833 -97 -161.5s-100.667 -121.667 -170 -195l-283 -304l2 -5
h377l15 139h226v-362h-993z" />
    <glyph glyph-name="three" unicode="3" horiz-adv-x="1112" 
d="M554 -21c-92.667 0 -177 16.3359 -253 49.0029s-136.167 80.167 -180.5 142.5s-65.5 137.833 -63.5 226.5l2 6h283c0 -38.667 8.66699 -73 26 -103s41.833 -53.667 73.5 -71s69.167 -26 112.5 -26c67.333 0 120.5 18.833 159.5 56.5s58.5 90.167 58.5 157.5
c0 68 -19.333 121 -58 159s-97 57 -175 57h-158v219h164c46.667 0 85 8.16699 115 24.5s52.333 39.5 67 69.5s22 65.333 22 106c0 62 -16.667 110.833 -50 146.5s-81.666 53.5 -144.999 53.5c-38 0 -71.667 -7.5 -101 -22.5s-52.166 -36.167 -68.499 -63.5
s-24.5 -59 -24.5 -95h-283l-2 6c-2 77.333 17 146.166 57 206.499s96.5 107.666 169.5 141.999s156.5 51.5 250.5 51.5c147.333 0 265.666 -35.833 354.999 -107.5s134 -173.167 134 -304.5c0 -68 -18.833 -129.333 -56.5 -184s-93.834 -99.334 -168.501 -134.001
c80.667 -28.667 142.167 -72.667 184.5 -132s63.5 -128.333 63.5 -207c0 -88.667 -22 -165 -66 -229s-104.5 -113.333 -181.5 -148s-164.5 -52 -262.5 -52z" />
    <glyph glyph-name="four" unicode="4" horiz-adv-x="1158" 
d="M492 0v175l156 30v143h-594l-14 143l605 965h294v-914h165v-194h-165v-143l155 -30v-175h-602zM312 542h336v525l-6 2l-24 -42z" />
    <glyph glyph-name="five" unicode="5" horiz-adv-x="1092" 
d="M548 -21c-88.667 0 -169.831 16.5029 -243.498 49.5029s-132.167 80.167 -175.5 141.5s-64 134.666 -62 219.999l2 5l280 14c0 -64.667 18.333 -115.167 55 -151.5s84.667 -54.5 144 -54.5c68 0 118.333 24.333 151 73s49 111.667 49 189c0 84 -17.333 151.333 -52 202
s-86.334 76 -155.001 76c-55.333 0 -97.833 -10.333 -127.5 -31s-50.834 -48.667 -63.501 -84l-258 17l84 811h838v-332h-180l-26 98h-392l-41 -336c18 13.333 38.667 25.166 62 35.499s48.5 18.666 75.5 24.999s55.833 9.5 86.5 9.5
c93.333 1.33301 172.833 -17.334 238.5 -56.001s115.667 -94.667 150 -168s51.5 -161.666 51.5 -264.999c0 -93.333 -18.833 -176.833 -56.5 -250.5s-93 -131.667 -166 -174s-162.5 -63.5 -268.5 -63.5z" />
    <glyph glyph-name="six" unicode="6" horiz-adv-x="1144" 
d="M611 -21c-102 0 -192.164 23.498 -270.497 70.498s-139.5 114.667 -183.5 203s-66 193.833 -66 316.5v256c0 137.333 24.833 254.5 74.5 351.5s118.5 171.333 206.5 223s189 77.5 303 77.5c54.667 0 105.167 -5.16699 151.5 -15.5s92.833 -25.5 139.5 -45.5l-51 -213
c-36 12.667 -73.333 23.334 -112 32.001s-78.667 13 -120 13c-96 0 -168.833 -31.667 -218.5 -95s-74.834 -156.666 -75.501 -279.999l3 -5c32.667 34 74.167 60.667 124.5 80s105.833 29 166.5 29c87.333 0 162.333 -21 225 -63s110.667 -100 144 -174s50 -158.667 50 -254
c0 -98 -20.833 -185.167 -62.5 -261.5s-99.334 -136.333 -173.001 -180s-158.834 -65.5 -255.501 -65.5zM605.003 202.998c42 0 78.333 12.667 109 38s54.334 59.833 71.001 103.5s25 92.167 25 145.5c0 78 -19.167 141.833 -57.5 191.5s-92.5 74.5 -162.5 74.5
c-30 0 -58.333 -4 -85 -12s-50.334 -19.167 -71.001 -33.5s-38 -31.5 -52 -51.5v-97c0 -115.333 20.667 -204 62 -266s95 -93 161 -93z" />
    <glyph glyph-name="seven" unicode="7" horiz-adv-x="1107" 
d="M330 0l14.001 148.001c15.333 142.667 42 277.5 80 404.5s88 247 150 360s136.333 219.167 223 318.5h-513l-11 -144h-224v369h1029v-225c-78 -91.333 -142.667 -178.5 -194 -261.5s-93 -166.333 -125 -250s-57.333 -171.834 -76 -264.501s-34.334 -195 -47.001 -307
l-14 -148h-292z" />
    <glyph glyph-name="eight" unicode="8" horiz-adv-x="1115" 
d="M564 -21c-98.667 0 -185.335 16.168 -260.002 48.501s-132.834 79.666 -174.501 141.999s-62.5 138.5 -62.5 228.5c0 78.667 22.333 148.167 67 208.5s105.334 106.833 182.001 139.5c-68 31.333 -121 75 -159 131s-57 120.333 -57 193c0 86.667 19.333 160.167 58 220.5
s92.667 106.5 162 138.5s150 48 242 48c92.667 0 173.834 -16 243.501 -48s123.834 -78.167 162.501 -138.5s58 -133.833 58 -220.5c0 -72.667 -19.333 -137 -58 -193s-91.667 -99.667 -159 -131c77.333 -32.667 138.333 -79.334 183 -140.001s67 -130 67 -208
c0 -90 -20.833 -166.167 -62.5 -228.5s-99.5 -109.666 -173.5 -141.999s-160.333 -48.5 -259 -48.5zM563.999 203.001c40.667 0 76.335 8.66699 107.002 26s54.5 42.166 71.5 74.499s25.5 70.5 25.5 114.5s-8.83301 82 -26.5 114s-41.834 57 -72.501 75
s-66.334 27 -107.001 27c-40 0 -75.333 -9 -106 -27s-54.5 -43.167 -71.5 -75.5s-25.5 -70.166 -25.5 -113.499c0 -66.667 18.667 -119.167 56 -157.5s87 -57.5 149 -57.5zM564 859.001c34.667 0 64.832 8.16797 90.499 24.501s45.334 39.333 59.001 69
s20.5 64.5 20.5 104.5c0 39.333 -7 73.5 -21 102.5s-33.833 51.667 -59.5 68s-56.167 24.5 -91.5 24.5c-53.333 0 -94.833 -17.5 -124.5 -52.5s-44.5 -82.5 -44.5 -142.5c0 -60.667 15 -108.834 45 -144.501s72 -53.5 126 -53.5z" />
    <glyph glyph-name="nine" unicode="9" horiz-adv-x="1141" 
d="M501 -21c-50.667 0 -102.831 5.16211 -156.498 15.4951s-103.167 25.5 -148.5 45.5l33 211c42 -15.333 85.167 -27.166 129.5 -35.499s87.833 -12.5 130.5 -12.5c84.667 0 151.334 29 200.001 87s73.667 148.333 75 271l-2 22
c-32.667 -42 -71.834 -73.833 -117.501 -95.5s-95.834 -32.5 -150.501 -32.5c-86 0 -161.5 20.167 -226.5 60.5s-115.333 97.833 -151 172.5s-53.5 164.334 -53.5 269.001c0 98 21.167 186.333 63.5 265s100.333 140.834 174 186.501s157.5 68.5 251.5 68.5
c99.333 0 186.666 -23 261.999 -69s134 -112.667 176 -200s63 -192.666 63 -315.999v-316c0 -125.333 -23.5 -232.666 -70.5 -321.999s-112 -157.5 -195 -204.5s-178.5 -70.5 -286.5 -70.5zM557.003 668.995c44.667 0 84.668 9.16602 120.001 27.499
s63.666 42.833 84.999 73.5v156c0 107.333 -18.667 188.5 -56 243.5s-88 82.5 -152 82.5c-39.333 0 -73.833 -13.167 -103.5 -39.5s-53 -62 -70 -107s-25.5 -94.5 -25.5 -148.5c0 -58.667 7.5 -109.667 22.5 -153s37.5 -76.666 67.5 -99.999s67.333 -35 112 -35z" />
    <glyph glyph-name="colon" unicode=":" horiz-adv-x="455" 
d="M91 0v256h291v-256h-291zM91 825v256h291v-256h-291z" />
    <glyph glyph-name="semicolon" unicode=";" horiz-adv-x="453" 
d="M90 825v256h291v-256h-291zM172 -364l-144.001 77.999c26 46.667 46 94.834 60 144.501s21 105.167 21 166.5v218h262l-1 -204c0 -78 -19.167 -152.5 -57.5 -223.5s-85.166 -130.833 -140.499 -179.5z" />
    <glyph glyph-name="less" unicode="&#x3c;" horiz-adv-x="1012" 
d="M919 69l-861 367v227l861 366v-272l-522 -194l-54 -13v-6l54 -13l522 -190v-272z" />
    <glyph glyph-name="equal" unicode="=" horiz-adv-x="1123" 
d="M123 763v229h896v-229h-896zM123 332v229h896v-229h-896z" />
    <glyph glyph-name="greater" unicode="&#x3e;" horiz-adv-x="1031" 
d="M104 60v270l524 196l61 13v6l-61 17l-524 189v269l871 -366v-227z" />
    <glyph glyph-name="question" unicode="?" horiz-adv-x="986" 
d="M333 414c0 48.667 2.99805 89.502 8.99805 122.502s15.833 62.167 29.5 87.5s33.167 50.333 58.5 75s58 52.667 98 84c34.667 28 63.334 57 86.001 87s40 61 52 93s18 65 18 99c0 57.333 -15.833 102.166 -47.5 134.499s-76.167 48.5 -133.5 48.5
c-48 0 -89.167 -13.333 -123.5 -40s-51.833 -66.667 -52.5 -120h-283l-3 6c-1.33301 81.333 17.5 150.833 56.5 208.5s93.333 101.667 163 132s150.167 45.5 241.5 45.5c148.667 0 264.834 -36.5 348.501 -109.5s125.5 -172.167 125.5 -297.5
c0 -58 -11.167 -111.667 -33.5 -161s-53 -96 -92 -140s-84.167 -87.667 -135.5 -131c-25.333 -21.333 -44.5 -41.833 -57.5 -61.5s-21.667 -42.334 -26 -68.001s-6.5 -57.167 -6.5 -94.5h-292zM332.998 0.00195312v256h292v-256h-292z" />
    <glyph glyph-name="at" unicode="@" horiz-adv-x="1806" 
d="M875 -453c-176 0 -325.663 37.498 -448.996 112.498s-215.833 182 -277.5 321s-88.834 304.833 -81.501 497.5c8 190 49 355.5 123 496.5s175.667 250.167 305 327.5s280.333 116 453 116c170.667 0 315.667 -36.5 435 -109.5s209 -176.333 269 -310
s86.333 -292.5 79 -476.5c-4 -99.333 -23.833 -190.166 -59.5 -272.499s-87.5 -148 -155.5 -197s-151.333 -73.5 -250 -73.5c-61.333 0 -111.833 14.667 -151.5 44s-67.5 70.333 -83.5 123c-58.667 -109.333 -146.334 -164 -263.001 -164c-94 0 -166.167 40 -216.5 120
s-68.833 187.333 -55.5 322c10.667 110.667 34.5 207.334 71.5 290.001s87 147 150 193s139.5 69 229.5 69c62 0 116.5 -8.33301 163.5 -25s99.5 -43.667 157.5 -81l2 -4l-51 -573c-2.66699 -42 -1.16699 -75 4.5 -99s15.5 -41 29.5 -51s31 -15 51 -15
c69.333 0 126.666 36.833 171.999 110.5s70.666 168.167 75.999 283.5c10.667 232 -35.166 413.333 -137.499 544s-259.166 196 -470.499 196c-134.667 0 -251.667 -32 -351 -96s-177.333 -154.833 -234 -272.5s-88.334 -256.167 -95.001 -415.5
c-8 -158 11.333 -294 58 -408s117.167 -202 211.5 -264s209.5 -93 345.5 -93c56.667 0 115.167 6.66699 175.5 20s112.166 30 155.499 50l38 -147c-44.667 -28 -101.5 -49.833 -170.5 -65.5s-136.5 -23.5 -202.5 -23.5zM840.004 157.998
c33.333 0 64.834 8.83301 94.501 26.5s56.5 49.834 80.5 96.501c0.666992 4 1.16699 9 1.5 15s1.16602 14.333 2.49902 25l41 464c-14.667 6 -29.834 10.667 -45.501 14s-32.167 5 -49.5 5c-73.333 0 -129.333 -32.167 -168 -96.5s-64 -161.5 -76 -291.5
c-6.66699 -84.667 -0.166992 -148.834 19.5 -192.501s52.834 -65.5 99.501 -65.5z" />
    <glyph glyph-name="A" unicode="A" horiz-adv-x="1512" 
d="M41 0v175l104 15l463 1266h299l460 -1266l104 -15v-175h-496v175l101 18l-64 200h-512l-64 -200l101 -18v-175h-496zM569 608h374l-170 499l-14 44h-6l-15 -47z" />
    <glyph glyph-name="B" unicode="B" horiz-adv-x="1344" 
d="M56 0v175.001l155 30v1045l-155 30v176h155h492c171.333 0 305 -33.333 401 -100s144 -166.334 144 -299.001c0 -67.333 -17.833 -127.5 -53.5 -180.5s-87.5 -92.833 -155.5 -119.5c58 -12.667 106.5 -35 145.5 -67s68.167 -70.833 87.5 -116.5s29 -95.5 29 -149.5
c0 -139.333 -46 -244.833 -138 -316.5s-222.333 -107.5 -391 -107.5h-716zM503 224.001l269 -0.000976562c77.333 0 136.333 16.833 177 50.5s61 83.5 61 149.5c0 48 -7.66699 88.333 -23 121s-38.833 57.334 -70.5 74.001s-72.5 25 -122.5 25h-291v-420zM503 846h210
c78 0 138 16 180 48s63 78.667 63 140c0 67.333 -21.167 117 -63.5 149s-105.5 48 -189.5 48h-200v-385z" />
    <glyph glyph-name="C" unicode="C" horiz-adv-x="1321" 
d="M749 -21c-141.333 0 -264.332 29.5 -368.999 88.5s-185.5 142.667 -242.5 251s-85.5 236.5 -85.5 384.5v49c0 141.333 27.5 266.5 82.5 375.5s133.5 194.5 235.5 256.5s223.333 93 364 93c98.667 0 191.167 -14 277.5 -42s163.5 -70.667 231.5 -128v-352h-217l-30 221
c-22 16 -46 29.667 -72 41s-54.167 20 -84.5 26s-63.166 9 -98.499 9c-82.667 0 -153.667 -20.333 -213 -61s-104.833 -98.167 -136.5 -172.5s-47.5 -162.5 -47.5 -264.5v-51c0 -102 16.667 -190.333 50 -265s80.666 -132.5 141.999 -173.5s134 -61.5 218 -61.5
c42 0 84.167 4.83301 126.5 14.5s80.833 22.167 115.5 37.5l30 205h217v-348c-56.667 -37.333 -127.334 -68.833 -212.001 -94.5s-178.667 -38.5 -282 -38.5z" />
    <glyph glyph-name="D" unicode="D" horiz-adv-x="1426" 
d="M56 0v175l157 33v1038l-157 34v176h157h482c130 0 244.667 -30.5 344 -91.5s176.833 -145.333 232.5 -253s83.5 -231.167 83.5 -370.5v-27c0 -138 -27.5 -260.833 -82.5 -368.5s-131.833 -192.167 -230.5 -253.5s-213 -92 -343 -92h-643zM505 223l179 -0.000976562
c80.667 0 149 21.167 205 63.5s98.833 100.5 128.5 174.5s44.5 158.333 44.5 253v28c0 96 -14.833 180.833 -44.5 254.5s-72.5 131.334 -128.5 173.001s-124.333 62.5 -205 62.5h-179v-1009z" />
    <glyph glyph-name="E" unicode="E" horiz-adv-x="1308" 
d="M56 0v175l155 30v1045l-155 30v176h1130v-393h-224l-13 168h-446v-366h493v-225h-493v-416h470l13 174h222v-398h-1152z" />
    <glyph glyph-name="F" unicode="F" horiz-adv-x="1265" 
d="M56 0v175l155 30v1045l-155 30v176h1159v-399h-224l-13 174h-475v-401h510v-225h-510v-400l156 -30v-175h-603z" />
    <glyph glyph-name="G" unicode="G" horiz-adv-x="1373" 
d="M733 -21c-144.667 0 -268 29.999 -370 89.999s-180.167 143.333 -234.5 250s-81.5 230.334 -81.5 371.001v50c0 145.333 27 273.333 81 384s130.5 197.167 229.5 259.5s216.167 93.5 351.5 93.5c104.667 0 203 -14.333 295 -43s172 -71.667 240 -129v-323h-216l-41 195
c-26 22.667 -61 40.834 -105 54.501s-94.333 20.5 -151 20.5c-81.333 0 -151.5 -21.333 -210.5 -64s-104.167 -102.334 -135.5 -179.001s-47 -165.667 -47 -267v-52c0 -98.667 15.5 -184.5 46.5 -257.5s76.5 -129.5 136.5 -169.5s133.667 -60 221 -60
c51.333 0 98.5 4.83301 141.5 14.5s78.5 21.5 106.5 35.5v247l-208 16v205h501v-589c-64.667 -46 -142.5 -83 -233.5 -111s-196.5 -42 -316.5 -42z" />
    <glyph glyph-name="H" unicode="H" horiz-adv-x="1600" 
d="M56 0v175l155 30v1045l-155 30v176h603v-176l-156 -30v-420h594v420l-156 30v176h156h291h156v-176l-156 -30v-1045l156 -30v-175h-603v175l156 30v400h-594v-400l156 -30v-175h-603z" />
    <glyph glyph-name="I" unicode="I" horiz-adv-x="714" 
d="M56 0v175l155 30v1045l-155 30v176h602v-176l-155 -30v-1045l155 -30v-175h-602z" />
    <glyph glyph-name="J" unicode="J" horiz-adv-x="1202" 
d="M553 -21c-101.333 0 -190.166 17.167 -266.499 51.5s-136.333 86.833 -180 157.5s-67.5 160.334 -71.5 269.001l2 6h274c5.33301 -95.333 26.666 -161.833 63.999 -199.5s87 -56.5 149 -56.5c40 0 75.167 8.66699 105.5 26s54.333 43.166 72 77.499s26.5 76.5 26.5 126.5
v813l-196 30v176h643v-176l-156 -30v-813c0 -93.333 -18 -174.333 -54 -243s-88.667 -121.667 -158 -159s-154 -56 -254 -56z" />
    <glyph glyph-name="K" unicode="K" horiz-adv-x="1545" 
d="M442 357l-151 173l713 735l2 3l-144 12v176h599v-176l-137 -27zM56 0v175l155 30v1045l-155 30v176h595v-176l-148 -30v-1045l148 -30v-175h-595zM894 0v175l136 12h1l-370 510l193 193l516 -690l143 -25v-175h-619z" />
    <glyph glyph-name="L" unicode="L" horiz-adv-x="1200" 
d="M56 0v175l155 30v1045l-155 30v176h155h292h176v-176l-176 -30v-1026h411l14 213h223v-437h-1095z" />
    <glyph glyph-name="M" unicode="M" horiz-adv-x="2066" 
d="M56 0v175l155 30v1045l-155 30v176h155h432l397 -1015h6l384 1015h588v-176l-156 -30v-1045l156 -30v-175h-603v175l163 30v279l5 657l-6 1l-435 -1122h-221l-445 1113l-6 -1l17 -618v-309l172 -30v-175h-603z" />
    <glyph glyph-name="N" unicode="N" horiz-adv-x="1604" 
d="M56 0v175l155 30v1045l-155 30v176h155h296l634 -1010l6 1v803l-186 30v176h447h156v-176l-156 -30v-1250h-282l-648 1000l-6 -1v-794l187 -30v-175h-603z" />
    <glyph glyph-name="O" unicode="O" horiz-adv-x="1446" 
d="M723 -21c-98 0 -187.334 18.333 -268.001 55s-150.167 88.167 -208.5 154.5s-103.166 144.333 -134.499 234s-47 187.834 -47 294.501v22c0 106 15.667 203.833 47 293.5s76 167.834 134 234.501s127.333 118.334 208 155.001s170 55 268 55
c98.667 0 188.667 -18.333 270 -55s151.333 -88.334 210 -155.001s103.834 -144.834 135.501 -234.501s47.5 -187.5 47.5 -293.5v-22c0 -106.667 -15.833 -204.834 -47.5 -294.501s-76.834 -167.667 -135.501 -234s-128.5 -117.833 -209.5 -154.5s-170.833 -55 -269.5 -55z
M722.999 206c82.667 0 151.333 21.333 206 64s95.834 102.334 123.501 179.001s41.5 166 41.5 268v24c0 100.667 -14 189.167 -42 265.5s-69.5 135.833 -124.5 178.5s-123.5 64 -205.5 64c-81.333 0 -149 -21.167 -203 -63.5s-94.5 -101.5 -121.5 -177.5
s-40.5 -165 -40.5 -267v-24c0 -102 13.5 -191.333 40.5 -268s67.667 -136.334 122 -179.001s122.166 -64 203.499 -64z" />
    <glyph glyph-name="P" unicode="P" horiz-adv-x="1325" 
d="M56 0v175.002l155 30v1045l-155 30v176h155h538c111.333 0 207.333 -19.5 288 -58.5s142.667 -93.333 186 -163s65 -150.834 65 -243.501s-21.667 -173.834 -65 -243.501s-105.333 -123.667 -186 -162s-176.667 -57.5 -288 -57.5h-246v-323l156 -30v-175h-603z
M503 753.002h246c81.333 0 142.833 22.167 184.5 66.5s62.5 100.833 62.5 169.5c0 70 -20.833 127.833 -62.5 173.5s-103.167 68.5 -184.5 68.5h-246v-478z" />
    <glyph glyph-name="Q" unicode="Q" horiz-adv-x="1449" 
d="M1293 -281l-411 278c-26 -5.33301 -52.167 -9.66602 -78.5 -12.999s-52.5 -5 -78.5 -5c-98 0 -187.5 18.333 -268.5 55s-150.5 88 -208.5 154s-102.667 144 -134 234s-47 188.333 -47 295v22c0 106 15.667 204 47 294s76 168.167 134 234.5s127.333 117.833 208 154.5
s170 55 268 55c98.667 0 188.5 -18.333 269.5 -55s151 -88.167 210 -154.5s104.333 -144.5 136 -234.5s47.5 -188 47.5 -294v-22c0 -126.667 -22.833 -242.334 -68.5 -347.001s-109.5 -190 -191.5 -256l310 -193zM725 206c82.667 0 151.499 21.333 206.499 64
s96.167 102.334 123.5 179.001s41 166 41 268v24c0 100.667 -14 189.167 -42 265.5s-69.5 135.833 -124.5 178.5s-123.5 64 -205.5 64s-150 -21.167 -204 -63.5s-94.333 -101.5 -121 -177.5s-40 -165 -40 -267v-24c0 -102 13.5 -191.333 40.5 -268
s67.833 -136.334 122.5 -179.001s122.334 -64 203.001 -64z" />
    <glyph glyph-name="R" unicode="R" horiz-adv-x="1408" 
d="M56 0v175.002l155 30v1045l-155 30v176h690c112 0 208 -17.333 288 -52s141.5 -84.334 184.5 -149.001s64.5 -142.334 64.5 -233.001c0 -85.333 -21.333 -161.666 -64 -228.999s-102 -120.333 -178 -159s-163.667 -58.334 -263 -59.001h-275v-370l156 -30v-175h-603z
M993 0.00195312l-245 629l263 65l212 -490l124 -29v-175h-354zM503 800.002l237.999 0.000976562c84 0 146.833 17.833 188.5 53.5s62.5 87.5 62.5 155.5c0 67.333 -20.667 121.166 -62 161.499s-102.666 60.5 -183.999 60.5h-243v-431z" />
    <glyph glyph-name="S" unicode="S" horiz-adv-x="1247" 
d="M650 -21c-107.333 0 -204.995 12.002 -292.995 36.002s-174.667 65.667 -260 125v352h226l31 -207c30 -25.333 71.333 -45.833 124 -61.5s110 -23.5 172 -23.5c52.667 0 97.167 7.33301 133.5 22s64 35.5 83 62.5s28.5 58.833 28.5 95.5c0 34.667 -8.5 65.5 -25.5 92.5
s-45 51.667 -84 74s-91.833 43.833 -158.5 64.5c-115.333 34 -210.833 71.167 -286.5 111.5s-132.334 88.666 -170.001 144.999s-56.5 124.166 -56.5 203.499c0 78.667 21.833 148.167 65.5 208.5s104.167 107.833 181.5 142.5s166.666 52.667 267.999 54
c112 1.33301 211.167 -12 297.5 -40s160.833 -67 223.5 -117v-328h-219l-38 200c-25.333 16 -59.5 30 -102.5 42s-91.833 18 -146.5 18c-46.667 0 -87.834 -7 -123.501 -21s-63.834 -34.333 -84.501 -61s-31 -59 -31 -97c0 -32.667 9 -61.167 27 -85.5
s48.167 -47.333 90.5 -69s100.833 -44.834 175.5 -69.501c160.667 -44.667 282.5 -103.667 365.5 -177s124.5 -169.666 124.5 -288.999c0 -82.667 -22.333 -154.167 -67 -214.5s-107.334 -106.833 -188.001 -139.5s-175 -49 -283 -49z" />
    <glyph glyph-name="T" unicode="T" horiz-adv-x="1389" 
d="M391 0v175l156 30v1026h-265l-16 -174h-221v399h1299v-399h-222l-16 174h-267v-1026l157 -30v-175h-605z" />
    <glyph glyph-name="U" unicode="U" horiz-adv-x="1555" 
d="M776 -21c-115.333 0 -216.83 20 -304.497 60s-155.834 98 -204.501 174s-73 168.333 -73 277v760l-155 30v176h603v-176l-156 -30v-760c0 -64 11.667 -117.333 35 -160s56.666 -74.5 99.999 -95.5s95 -31.5 155 -31.5c61.333 0 113.833 10.5 157.5 31.5
s77.167 52.833 100.5 95.5s35 96 35 160v760l-155 30v176h603v-176l-156 -30v-760c0 -108.667 -24.5 -201.167 -73.5 -277.5s-117.333 -134.333 -205 -174s-189.834 -59.5 -306.501 -59.5z" />
    <glyph glyph-name="V" unicode="V" horiz-adv-x="1535" 
d="M632 0l-468 1264l-130 16v176h579v-176l-131 -20l286 -859l22 -80h6l21 78l286 861l-153 20v176h552v-176l-132 -16l-439 -1264h-299z" />
    <glyph glyph-name="W" unicode="W" horiz-adv-x="2202" 
d="M521 0l-338 1265l-149 15v176h586v-176l-157 -23l171 -708l31 -130h6l37 130l288 907h215l299 -932l35 -115h6l30 115l177 733l-166 23v176h575v-176l-139 -15l-342 -1265h-264l-276 851l-35 120h-6l-39 -124l-279 -847h-266z" />
    <glyph glyph-name="X" unicode="X" horiz-adv-x="1514" 
d="M36 0v175l127 24l412 522l-388 534l-118 25v176h569v-176l-139 -13l250 -350l250 350l-136 13v176h561v-176l-129 -25l-373 -508l418 -547l139 -25v-175h-583v175l125 12l-270 370l-276 -370l122 -12v-175h-561z" />
    <glyph glyph-name="Y" unicode="Y" horiz-adv-x="1508" 
d="M452 0v175l156 30v294l-432 761l-140 20v176h581v-176l-119 -17l242 -465l22 -47l6 1l22 44l269 467l-160 17v176h570v-176l-144 -20l-426 -738v-317l156 -30v-175h-603z" />
    <glyph glyph-name="Z" unicode="Z" horiz-adv-x="1226" 
d="M74 0v192l710 1039h-443l-23 -186h-223l12 411h1036v-186l-713 -1046h507l24 186h222l-18 -410h-1091z" />
    <glyph glyph-name="bracketleft" unicode="[" horiz-adv-x="596" 
d="M139 -336v2027h433v-216h-141v-1595h141v-216h-433z" />
    <glyph glyph-name="backslash" unicode="\" horiz-adv-x="854" 
d="M620 -125l-608 1581h288l608 -1581h-288z" />
    <glyph glyph-name="bracketright" unicode="]" horiz-adv-x="579" 
d="M21 -336v216h143v1595h-143v216h434v-2027h-434z" />
    <glyph glyph-name="asciicircum" unicode="^" horiz-adv-x="884" 
d="M45 729l299 727h212l299 -727h-231l-165 413l-8 34h-6l-7 -34l-162 -413h-231z" />
    <glyph glyph-name="underscore" unicode="_" horiz-adv-x="1094" 
d="M92 -186v186h910v-186h-910z" />
    <glyph glyph-name="grave" unicode="`" horiz-adv-x="590" 
d="M550 1287h-8h-226l-276 267l2 6h309z" />
    <glyph glyph-name="a" unicode="a" horiz-adv-x="1154" 
d="M425 -21c-107.333 0 -192.669 28.834 -256.002 86.501s-95 136.167 -95 235.5c0 68 18.5 127.667 55.5 179s91.667 91.666 164 120.999s161.5 44 267.5 44h143v80c0 52 -15.167 94.167 -45.5 126.5s-75.833 48.5 -136.5 48.5c-31.333 0 -59.5 -3.83301 -84.5 -11.5
s-47.5 -18.5 -67.5 -32.5l-23 -143h-210l-4 281c56.667 32 118 58 184 78s139.667 30 221 30c141.333 0 253 -32.833 335 -98.5s123 -159.5 123 -281.5v-446c0 -14.667 0.166992 -29.167 0.5 -43.5s1.5 -28.166 3.5 -41.499l113 -16v-175h-362
c-7.33301 18.667 -14.666 38.667 -21.999 60s-12.666 42.666 -15.999 63.999c-34.667 -44 -75.5 -79.167 -122.5 -105.5s-102.167 -39.5 -165.5 -39.5zM502.997 195.001c40.667 0 79.334 9.16602 116.001 27.499s65 42.5 85 72.5v171h-144c-64 0 -112.5 -14.667 -145.5 -44
s-49.5 -64.666 -49.5 -105.999c0 -38.667 12.167 -68.5 36.5 -89.5s58.166 -31.5 101.499 -31.5z" />
    <glyph glyph-name="b" unicode="b" horiz-adv-x="1181" 
d="M696 -21c-66.667 0 -123.668 13.167 -171.001 39.5s-87 64.5 -119 114.5l-21 -133h-252v1354l-155 30v176h446v-593c31.333 43.333 69.833 76.666 115.5 99.999s98.834 35 159.501 35c87.333 0 161.5 -23.5 222.5 -70.5s107.5 -113.167 139.5 -198.5
s48 -185.666 48 -300.999v-21c0 -107.333 -16 -200.833 -48 -280.5s-78.667 -141.5 -140 -185.5s-136.333 -66 -225 -66zM607.999 206c74.667 0 128.332 26.499 160.999 79.499s49 128.167 49 225.5v21c0 70.667 -7.16699 131.5 -21.5 182.5s-36.666 90.5 -66.999 118.5
s-69.833 42 -118.5 42c-44 0 -81.667 -10.333 -113 -31s-56 -48.667 -74 -84v-452c20 -33.333 45.5 -58.666 76.5 -75.999s66.833 -26 107.5 -26z" />
    <glyph glyph-name="c" unicode="c" horiz-adv-x="1082" 
d="M572 -21c-104 0 -193.829 23.334 -269.496 70.001s-133.834 111.167 -174.501 193.5s-61 176.5 -61 282.5v30c0 106.667 20.667 201 62 283s99.666 146.5 174.999 193.5s164 70.5 266 70.5c97.333 0 181.166 -15.167 251.499 -45.5s127.5 -65.5 171.5 -105.5l-2 -310
h-220l-39 193c-16 16 -36.333 29 -61 39s-49.667 15 -75 15c-53.333 0 -97.5 -13.333 -132.5 -40s-61.167 -64.667 -78.5 -114s-26 -109 -26 -179v-30c0 -74 9.66699 -134.833 29 -182.5s45.166 -82.834 77.499 -105.501s68.5 -34 108.5 -34c51.333 0 92.5 13.5 123.5 40.5
s52.5 65.167 64.5 114.5h249l3 -6c-11.333 -76.667 -33.833 -143 -67.5 -199s-81 -99 -142 -129s-138.5 -45 -232.5 -45z" />
    <glyph glyph-name="d" unicode="d" horiz-adv-x="1212" 
d="M479 -21c-86 0 -159.832 22.166 -221.499 66.499s-108.834 106.333 -141.501 186s-49 172.834 -49 279.501v21c0 114 16.5 213.667 49.5 299s80.167 151.833 141.5 199.5s134.666 71.5 219.999 71.5c59.333 0 111.333 -11.833 156 -35.5s83.334 -57.167 116.001 -100.5
v388l-156 30v176h156h292v-1355l140 -30v-175h-393l-22 132c-34 -50 -74.5 -88 -121.5 -114s-102.5 -39 -166.5 -39zM566.001 205.999c40.667 0 76.332 8.66699 106.999 26s56.334 42.333 77.001 75v459c-20 34.667 -45.333 61.5 -76 80.5s-66 28.5 -106 28.5
c-48.667 0 -88.5 -14.5 -119.5 -43.5s-53.667 -69.167 -68 -120.5s-21.5 -111 -21.5 -179v-21c0 -94.667 16 -169.167 48 -223.5s85 -81.5 159 -81.5z" />
    <glyph glyph-name="e" unicode="e" horiz-adv-x="1078" 
d="M581 -21c-103.333 0 -193.667 22.833 -271 68.5s-137.166 108.5 -179.499 188.5s-63.5 171.333 -63.5 274v40c0 107.333 20 202.5 60 285.5s96.5 148.333 169.5 196s159.167 71.167 258.5 70.5c98 0 180.333 -19.333 247 -58s117.334 -94.334 152.001 -167.001
s52 -160.667 52 -264v-159h-636l-2 -6c4 -47.333 15.833 -89.5 35.5 -126.5s47.5 -66 83.5 -87s79.667 -31.5 131 -31.5c53.333 0 103.166 6.83301 149.499 20.5s91.5 33.834 135.5 60.501l79 -180c-44.667 -36 -100.834 -65.833 -168.501 -89.5
s-145.167 -35.5 -232.5 -35.5zM371.999 647l361.003 -0.000976562v26c0 44 -5.83301 81.833 -17.5 113.5s-30.334 56.167 -56.001 73.5s-58.834 26 -99.501 26c-38.667 0 -71.334 -10.167 -98.001 -30.5s-47.5 -48.166 -62.5 -83.499s-25.167 -75.333 -30.5 -120z" />
    <glyph glyph-name="f" unicode="f" horiz-adv-x="799" 
d="M79 0v175l141 30v672h-161v205h161v120c0 121.333 34.833 214.833 104.5 280.5s167.167 98.5 292.5 98.5c31.333 0 64.333 -2.5 99 -7.5s64.334 -10.833 89.001 -17.5l-25 -217c-16 4.66699 -34.333 8.16699 -55 10.5s-41.667 3.5 -63 3.5
c-50.667 0 -88.334 -13 -113.001 -39s-37 -63.333 -37 -112v-120h245v-205h-245v-672l191 -30v-175h-624z" />
    <glyph glyph-name="g" unicode="g" horiz-adv-x="1198" 
d="M540 -437c-54.667 0 -116.003 7.00098 -184.003 21.001s-128 34 -180 60l54 208c46.667 -20 96.167 -35.833 148.5 -47.5s101.166 -17.5 146.499 -17.5c78 0 135.167 21.667 171.5 65s54.5 103.666 54.5 180.999v71c-32 -40.667 -69.667 -71.667 -113 -93
s-93 -32 -149 -32c-88 0 -163.667 22.167 -227 66.5s-111.666 106.5 -144.999 186.5s-50 173 -50 279v21c0 114 16.667 213.667 50 299s81 151.833 143 199.5s136.333 71.5 223 71.5c64.667 0 120.334 -13.5 167.001 -40.5s86.334 -65.5 119.001 -115.5l21 136h254v-1050
c0 -95.333 -20.167 -178 -60.5 -248s-98.166 -124.333 -173.499 -163s-165.333 -58 -270 -58zM570.997 206.001c41.333 0 77 8.16797 107 24.501s54.333 40.166 73 71.499v470c-18.667 32.667 -43.167 58 -73.5 76s-65.5 27 -105.5 27c-50 0 -90.667 -14.5 -122 -43.5
s-54.333 -69 -69 -120s-22 -110.833 -22 -179.5v-21c0 -94.667 16.333 -169.167 49 -223.5s87 -81.5 163 -81.5zM1007 871.002l-127 211h291v-176z" />
    <glyph glyph-name="h" unicode="h" horiz-adv-x="1302" 
d="M47 0l-0.00195312 174.998l141 30v1149l-156 30v176h447v-616c34 50 76.167 88.833 126.5 116.5s107.5 41.5 171.5 41.5c108.667 0 194.834 -36.167 258.501 -108.5s95.5 -184.166 95.5 -335.499v-453l140 -30v-175h-558v175l126 30v455c0 78 -14.667 133.333 -44 166
s-72.333 49 -129 49c-39.333 0 -75.166 -8.16699 -107.499 -24.5s-58.833 -40.166 -79.5 -71.499v-574l126 -30v-175h-558z" />
    <glyph glyph-name="i" unicode="i" horiz-adv-x="661" 
d="M54 0v175l141 30v671l-156 30v176h448v-877l140 -30v-175h-573zM185 1311v249h302v-249h-302z" />
    <glyph glyph-name="j" unicode="j" horiz-adv-x="600" 
d="M105 -437c-27.333 0 -52.167 1.33301 -74.5 4s-45.5 7 -69.5 13l15 221c14.667 -4 30.167 -7.16699 46.5 -9.5s33.5 -3.5 51.5 -3.5c38 0 67.667 15 89 45s32 72.333 32 127v916l-156 30v176h447v-1122c0 -127.333 -33.5 -225.333 -100.5 -294s-160.5 -103 -280.5 -103z
M180.999 1311v249h302v-249h-302z" />
    <glyph glyph-name="k" unicode="k" horiz-adv-x="1316" 
d="M47 0v175l141 30v1149l-156 30v176h447v-1355l126 -30v-175h-558zM736 0v166l82 19l-2 4l-214 291l186 191l355 -465l134 -31v-175h-541zM448 296l-140 163l470 430l2 3l-111 16v174h563v-176l-140 -35z" />
    <glyph glyph-name="l" unicode="l" horiz-adv-x="653" 
d="M47 0v175l141 30v1149l-156 30v176h448v-1355l141 -30v-175h-574z" />
    <glyph glyph-name="m" unicode="m" horiz-adv-x="1917" 
d="M52 0l-0.00292969 175.001l141 30v671l-156 30v176h427l12 -143c34.667 52 78.167 92.167 130.5 120.5s112.833 42.5 181.5 42.5c69.333 0 128.833 -15.333 178.5 -46s86.834 -77 111.501 -139c33.333 58 76.666 103.333 129.999 136s116 49 188 49
c106.667 0 190.834 -36.333 252.501 -109s92.5 -183.334 92.5 -332.001v-456l141 -30v-175h-559v175l126 30v457c0 80 -13.167 135.5 -39.5 166.5s-64.5 46.5 -114.5 46.5c-45.333 0 -83.666 -12.833 -114.999 -38.5s-54 -59.5 -68 -101.5v-530l118 -30v-175h-527v175
l118 30v457c0 78 -13.167 133 -39.5 165s-65.166 48 -116.499 48c-41.333 0 -77 -8.33301 -107 -25s-54.667 -40.667 -74 -72v-573l126 -30v-175h-558z" />
    <glyph glyph-name="n" unicode="n" horiz-adv-x="1307" 
d="M52 0l0.000976562 175.002l140 30v671l-155 30v176h427l13 -155c36 55.333 80.5 98.333 133.5 129s113.5 46 181.5 46c107.333 0 191.333 -34.333 252 -103s91 -176.334 91 -323.001v-471l140 -30v-175h-558v175l125 30v470c0 72.667 -14.333 124.167 -43 154.5
s-71.334 45.5 -128.001 45.5c-42 0 -78.5 -8.83301 -109.5 -26.5s-56.833 -42.834 -77.5 -75.501v-568l118 -30v-175h-550z" />
    <glyph glyph-name="o" unicode="o" horiz-adv-x="1155" 
d="M579 -21c-106.667 0 -198.332 23.333 -274.999 70s-135.334 111.5 -176.001 194.5s-61 178.5 -61 286.5v21c0 107.333 20.333 202.5 61 285.5s99.167 148 175.5 195s167.5 70.5 273.5 70.5c107.333 0 199 -23.5 275 -70.5s134.333 -111.833 175 -194.5s61 -178 61 -286
v-21c0 -108 -20.333 -203.5 -61 -286.5s-99 -147.833 -175 -194.5s-167 -70 -273 -70zM579.002 203c50.667 0 91.998 13.666 123.998 40.999s55.667 65.5 71 114.5s23 106.167 23 171.5v21c0 64 -7.66699 120.5 -23 169.5s-39.166 87.333 -71.499 115
s-74.166 41.5 -125.499 41.5c-50 0 -91.333 -13.833 -124 -41.5s-56.5 -66 -71.5 -115s-22.5 -105.5 -22.5 -169.5v-21c0 -65.333 7.5 -122.666 22.5 -171.999s38.833 -87.5 71.5 -114.5s74.667 -40.5 126 -40.5z" />
    <glyph glyph-name="p" unicode="p" horiz-adv-x="1240" 
d="M56 -416l-0.000976562 176.001l141 30v1086l-156 30v176h424l14 -126c32 46.667 70.667 82.667 116 108s99.333 38 162 38c87.333 0 162 -23.833 224 -71.5s109.5 -114.167 142.5 -199.5s49.5 -185 49.5 -299v-21c0 -106.667 -16.5 -199.834 -49.5 -279.501
s-80.667 -141.667 -143 -186s-137.5 -66.5 -225.5 -66.5c-58 0 -109.167 10.5 -153.5 31.5s-82.166 51.833 -113.499 92.5v-313l141 -30v-176h-573zM667.999 203.001c74.667 0 128.834 27.667 162.501 83s50.5 130.333 50.5 225v21c0 68.667 -7.66699 128.5 -23 179.5
s-38.833 91 -70.5 120s-72.167 43.5 -121.5 43.5c-40 0 -75.167 -9 -105.5 -27s-54.5 -43.667 -72.5 -77v-474c18 -30.667 42.167 -54 72.5 -70s66.166 -24 107.499 -24z" />
    <glyph glyph-name="q" unicode="q" horiz-adv-x="1156" 
d="M576 -416l-0.000976562 171.999l171 34v310c-32.667 -40 -70.5 -70.167 -113.5 -90.5s-93.167 -30.5 -150.5 -30.5c-87.333 0 -162 22.167 -224 66.5s-109.5 106.333 -142.5 186s-49.5 172.834 -49.5 279.501v21c0 114 16.5 213.667 49.5 299s80.5 151.833 142.5 199.5
s136.333 71.5 223 71.5c63.333 0 117.833 -13 163.5 -39s84.834 -63 117.501 -111l22 130h254v-1292l131 -29v-177h-594zM567.999 202.999c39.333 0 74.166 7.83203 104.499 23.499s55.166 38.834 74.499 69.501v481c-19.333 32 -43.833 56.667 -73.5 74
s-64.167 26 -103.5 26c-49.333 0 -89.666 -14.333 -120.999 -43s-54.166 -69 -68.499 -121s-21.5 -112.333 -21.5 -181v-21c0 -95.333 16 -170.5 48 -225.5s85.667 -82.5 161 -82.5z" />
    <glyph glyph-name="r" unicode="r" horiz-adv-x="886" 
d="M85 0v175l140 30v671l-155 30v176h427l11 -134l2 -24c26.667 58.667 59.667 103 99 133s86.333 45 141 45c17.333 0 36.333 -1.5 57 -4.5s39 -6.83301 55 -11.5l-31 -269l-145 8c-41.333 2 -74.833 -5 -100.5 -21s-48.5 -39 -68.5 -69v-530l140 -30v-175h-572z" />
    <glyph glyph-name="s" unicode="s" horiz-adv-x="1034" 
d="M527 -21c-80.667 0 -155.834 7.66797 -225.501 23.001s-136.5 37.333 -200.5 66l-3 306h203l39 -156c22.667 -11.333 47.5 -20.333 74.5 -27s57.833 -10 92.5 -10c65.333 0 111.333 10.667 138 32s40 48 40 80c0 30 -14.167 56.5 -42.5 79.5s-84.833 43.167 -169.5 60.5
c-128 26.667 -222.333 68 -283 124s-91 127.667 -91 215c0 60 15.167 114.667 45.5 164s76.666 89 138.999 119s142.166 45 239.499 45c81.333 0 155.833 -7.83301 223.5 -23.5s124.5 -36.167 170.5 -61.5l3 -296h-202l-31 142c-18 13.333 -39.167 23.333 -63.5 30
s-51.833 10 -82.5 10c-51.333 0 -90.666 -10.333 -117.999 -31s-41 -47.334 -41 -80.001c0 -18.667 4.83301 -36 14.5 -52s28.834 -31 57.501 -45s70.334 -27.333 125.001 -40c134 -30.667 231.667 -71.5 293 -122.5s92 -122.5 92 -214.5c0 -100.667 -36.5 -182 -109.5 -244
s-182.167 -93 -327.5 -93z" />
    <glyph glyph-name="t" unicode="t" horiz-adv-x="735" 
d="M488 -21c-100.667 0 -178.168 27.668 -232.501 83.001s-81.5 143 -81.5 263v552h-149v205h149v265h291v-265h199v-205h-199v-551c0 -42 8.83301 -72 26.5 -90s41.834 -27 72.501 -27c16 0 33.333 1.16699 52 3.5s34.667 4.83301 48 7.5l25 -211
c-30 -8.66699 -62.5 -15.834 -97.5 -21.501s-69.5 -8.5 -103.5 -8.5z" />
    <glyph glyph-name="u" unicode="u" horiz-adv-x="1275" 
d="M522 -21c-114 0 -203.498 36.167 -268.498 108.5s-97.5 184.833 -97.5 337.5v451l-119 30v176h119h292v-659c0 -77.333 13.5 -132.833 40.5 -166.5s67.833 -50.5 122.5 -50.5c43.333 0 81.666 8.5 114.999 25.5s60.666 41.167 81.999 72.5v572l-129 30v176h129h292v-877
l130 -30v-175h-386l-20 137c-34 -50.667 -76.667 -89.667 -128 -117s-109.333 -41 -174 -41z" />
    <glyph glyph-name="v" unicode="v" horiz-adv-x="1247" 
d="M466 0l-327 888l-117 18v176h525v-175l-114 -20l163 -491l25 -84h6l28 84l179 490l-133 21v175h524v-176l-120 -20l-342 -886h-297z" />
    <glyph glyph-name="w" unicode="w" horiz-adv-x="1822" 
d="M417 0l-252 882l-132 24v176h523v-175l-114 -22l100 -421l20 -83h6l27 83l222 618h196l215 -626l28 -88h6l26 88l118 428l-126 23v175h512v-176l-126 -24l-275 -882h-246l-198 536l-35 119h-6l-35 -120l-195 -535h-259z" />
    <glyph glyph-name="x" unicode="x" horiz-adv-x="1319" 
d="M30 0v175l139 18l310 349l-293 347l-131 17v176h536v-168l-84 -13l157 -206l157 206l-93 13v168h517v-176l-121 -17l-277 -335l309 -361l133 -18v-175h-555v167l94 13l-167 207l-163 -208l92 -12v-167h-560z" />
    <glyph glyph-name="y" unicode="y" horiz-adv-x="1285" 
d="M363 -437c-25.333 0 -52.167 2.16797 -80.5 6.50098s-55.166 10.166 -80.499 17.499l33 214c12.667 -2.66699 26.667 -4.66699 42 -6s28.666 -2 39.999 -2c42 0 78.333 11 109 33s53 53.667 67 95l24 67l-362 899l-133 19v176h574v-176l-132 -20l170 -477l21 -59h6
l201 538l-129 18v176h535v-176l-122 -17l-413 -1050c-20 -50 -45.5 -95.833 -76.5 -137.5s-70.333 -75.167 -118 -100.5s-106.167 -38 -175.5 -38z" />
    <glyph glyph-name="z" unicode="z" horiz-adv-x="1107" 
d="M88 0v172l563 706h-292l-33 -185h-214v389h889v-187l-531 -686h306l43 199h205v-408h-936z" />
    <glyph glyph-name="braceleft" unicode="{" horiz-adv-x="673" 
d="M577 -360c-130 36.667 -222.5 95 -277.5 175s-82.5 177 -82.5 291v203c0 66 -14.5 117.333 -43.5 154s-73.833 55 -134.5 55v201c60.667 0 105.5 18.167 134.5 54.5s43.5 88.166 43.5 155.499v203c0 114 27.5 210.833 82.5 290.5s147.5 137.834 277.5 174.501l56 -157
c-57.333 -20.667 -97.5 -57.5 -120.5 -110.5s-34.5 -118.833 -34.5 -197.5v-203c0 -69.333 -15 -130.833 -45 -184.5s-75 -95.5 -135 -125.5c60 -31.333 105 -73.833 135 -127.5s45 -114.5 45 -182.5v-203c0 -78.667 11.5 -144.5 34.5 -197.5s63.167 -89.833 120.5 -110.5z
" />
    <glyph glyph-name="bar" unicode="|" horiz-adv-x="428" 
d="M132 -270v1726h175v-1726h-175z" />
    <glyph glyph-name="braceright" unicode="}" horiz-adv-x="679" 
d="M95 -360l-56 158.001c56 20.667 95.667 57.5 119 110.5s35 118.833 35 197.5v203c0 69.333 15.167 130.666 45.5 183.999s76.833 95 139.5 125c-62.667 30 -109.167 71.833 -139.5 125.5s-45.5 115.5 -45.5 185.5v203c0 78.667 -11.667 144.5 -35 197.5
s-63 89.833 -119 110.5l56 157c129.333 -36.667 221.666 -94.834 276.999 -174.501s83 -176.5 83 -290.5v-203c0 -67.333 14.333 -119.166 43 -155.499s73.334 -54.5 134.001 -54.5v-201c-60.667 0 -105.334 -18.333 -134.001 -55s-43 -88 -43 -154v-203
c0 -114 -27.667 -211 -83 -291s-147.666 -138.333 -276.999 -175z" />
    <glyph glyph-name="asciitilde" unicode="~" horiz-adv-x="1323" 
d="M896 378c-53.333 0 -103.832 10.499 -151.499 31.499s-97.5 54.833 -149.5 101.5c-33.333 29.333 -62.5 50.666 -87.5 63.999s-51.167 20 -78.5 20c-36.667 0 -67.167 -17 -91.5 -51s-36.5 -74.667 -36.5 -122l-201 26c0 72 13.167 136.333 39.5 193s63 101.5 110 134.5
s101.167 49.5 162.5 49.5c54 0 106.167 -11.167 156.5 -33.5s100.5 -55.5 150.5 -99.5c32.667 -30 61.5 -51.5 86.5 -64.5s51.167 -19.5 78.5 -19.5c35.333 0 65.5 17.333 90.5 52s37.5 76.334 37.5 125.001l202 -27c0 -71.333 -13.5 -135.666 -40.5 -192.999
s-64.333 -102.833 -112 -136.5s-102.834 -50.5 -165.501 -50.5z" />
    <glyph glyph-name="uni00A0" unicode="&#xa0;" horiz-adv-x="502" 
 />
    <glyph glyph-name="exclamdown" unicode="&#xa1;" horiz-adv-x="507" 
d="M96 580v-954h292v954h-292zM96 1082v-256h292v256h-292z" />
    <glyph glyph-name="cent" unicode="&#xa2;" horiz-adv-x="1092" 
d="M467 -245l0.00195312 234.996c-83.333 16 -153.833 48.667 -211.5 98s-101.334 111.333 -131.001 186s-44.5 158.334 -44.5 251.001v30c0 90.667 15 172.834 45 246.501s73.667 135.667 131 186s127.666 84.166 210.999 101.499v229h200v-219
c71.333 -6.66699 135.666 -22.5 192.999 -47.5s106 -57.833 146 -98.5l4 -289h-237l-48 169c-14.667 12.667 -32.834 23.167 -54.501 31.5s-48.167 12.5 -79.5 12.5c-52 0 -94.167 -13.667 -126.5 -41s-55.833 -65.166 -70.5 -113.499s-22 -104.166 -22 -167.499v-30
c0 -64.667 6.66699 -121.167 20 -169.5s35.5 -85.833 66.5 -112.5s72.833 -40 125.5 -40c34.667 0 64.834 7 90.501 21s45.667 33.333 60 58s21.5 54 21.5 88h265l3 -6c1.33301 -64 -13.167 -122.667 -43.5 -176s-72.666 -97.666 -126.999 -132.999
s-116.5 -58.333 -186.5 -69v-231h-200z" />
    <glyph glyph-name="sterling" unicode="&#xa3;" horiz-adv-x="1177" 
d="M110 0l-0.00195312 224h10c22.667 5.33301 41.834 21.666 57.501 48.999s27.334 60.5 35.001 99.5s11.5 78.167 11.5 117.5l-4 98h-163v225h155l-8 214c0 140 40.167 250 120.5 330s187.833 120 322.5 120c143.333 0 254.5 -37.167 333.5 -111.5
s117.167 -172.5 114.5 -294.5l-2 -6h-285c0 64 -15.333 111.167 -46 141.5s-69.334 45.5 -116.001 45.5c-47.333 0 -84.333 -19.667 -111 -59s-40 -94.666 -40 -165.999l10 -214h356v-225h-346l4 -85c0 -52 -8.66699 -102 -26 -150s-42.666 -91 -75.999 -129h465l12 144h223
v-368h-1007z" />
    <glyph glyph-name="currency" unicode="&#xa4;" horiz-adv-x="1432" 
d="M1206 -27l-132.001 133.996c-51.333 -40.667 -107.833 -72 -169.5 -94s-125.834 -33 -192.501 -33c-67.333 0 -131.666 10.833 -192.999 32.5s-117 52.834 -167 93.501l-129 -132l-141 144l135 137c-32.667 50.667 -57.5 105.834 -74.5 165.501
s-25.5 122.167 -25.5 187.5c0 67.333 9.33301 131.833 28 193.5s45.667 118.834 81 171.501l-144 147l141 144l142 -145c49.333 36.667 103.333 65 162 85s120.334 30 185.001 30c64 0 125.667 -10.167 185 -30.5s114 -49.166 164 -86.499l145 148l142 -145l-148 -151
c34 -52 60.333 -108.5 79 -169.5s28 -124.833 28 -191.5c0 -64.667 -8.5 -126.5 -25.5 -185.5s-41.167 -113.5 -72.5 -163.5l139 -141zM711.999 168.996c56.667 0 109.667 11.168 159 33.501s92.666 53.5 129.999 93.5s66.666 86.667 87.999 140s32 110.666 32 171.999
s-10.667 118.333 -32 171s-50.666 99 -87.999 139s-80.666 71.167 -129.999 93.5s-102.333 33.5 -159 33.5s-109.834 -11.167 -159.501 -33.5s-93.334 -53.5 -131.001 -93.5s-67 -86.333 -88 -139s-31.5 -109.667 -31.5 -171s10.5 -118.5 31.5 -171.5
s50.333 -99.5 88 -139.5s81.334 -71.333 131.001 -94s102.834 -34 159.501 -34z" />
    <glyph glyph-name="yen" unicode="&#xa5;" horiz-adv-x="1401" 
d="M400 0v175l155 30v91h-339v164h339v117h-339v165h267l-276 516l-166 22v176h536v-176l-68 -13l180 -389l13 -29h6l10 22l183 396l-68 13v176h536v-176l-166 -22l-276 -516h244v-165h-324v-117h324v-164h-324v-91l140 -30v-175h-587z" />
    <glyph glyph-name="brokenbar" unicode="&#xa6;" horiz-adv-x="513" 
d="M134 -270v795h261v-795h-261zM134 698v758h261v-758h-261z" />
    <glyph glyph-name="section" unicode="&#xa7;" horiz-adv-x="1243" 
d="M628 -461c-103.333 0 -195.829 14.499 -277.496 43.499s-145.834 74.333 -192.501 136s-69 140.834 -67 237.501l2 6l282 1c0 -46.667 11.167 -84.667 33.5 -114s52.5 -50.666 90.5 -63.999s81 -20 129 -20c71.333 0 126.833 13.833 166.5 41.5s59.5 63.834 59.5 108.501
c0 30 -8.5 55.5 -25.5 76.5s-46.5 41 -88.5 60s-100.667 39.5 -176 61.5c-108.667 28.667 -198.334 61.167 -269.001 97.5s-123.334 80.5 -158.001 132.5s-52 116.333 -52 193c0 58.667 14 111 42 157s68.667 84 122 114c-46 33.333 -80.5 73.5 -103.5 120.5
s-34.5 103.167 -34.5 168.5c0 76.667 21.333 143.5 64 200.5s103 101.333 181 133s169.667 47.5 275 47.5c162.667 0 289.667 -37 381 -111s135.333 -177.667 132 -311l-2 -6h-282c0 39.333 -9 74.166 -27 104.499s-44.167 54.333 -78.5 72s-75.5 26.5 -123.5 26.5
c-76 0 -132.833 -14.5 -170.5 -43.5s-56.5 -65.833 -56.5 -110.5c0 -33.333 7.66699 -60.833 23 -82.5s43.666 -41.334 84.999 -59.001s101 -37.167 179 -58.5c110 -28 200.5 -60.333 271.5 -97s123.667 -81 158 -133s51.5 -116.333 51.5 -193
c0 -60.667 -14 -113.667 -42 -159s-68.333 -82.333 -121 -111c45.333 -34 79.5 -74.5 102.5 -121.5s34.5 -102.833 34.5 -167.5c0 -118 -46.833 -210.333 -140.5 -277s-219.5 -100 -377.5 -100zM802.004 305.999c26 14.667 46.167 34.335 60.5 59.002s21.5 53 21.5 85
s-8.66699 59.5 -26 82.5s-47.333 44.667 -90 65s-101.667 42.166 -177 65.499c-26.667 6.66699 -51.334 13.667 -74.001 21l-65 22c-25.333 -14.667 -44.166 -34.334 -56.499 -59.001s-18.5 -53 -18.5 -85c0 -36 7.5 -65.667 22.5 -89s43.167 -44.333 84.5 -63
s101.333 -39.667 180 -63l68.5 -20z" />
    <glyph glyph-name="dieresis" unicode="&#xa8;" horiz-adv-x="812" 
d="M491 1311v249h281v-249h-281zM40 1311v249h281v-249h-281z" />
    <glyph glyph-name="copyright" unicode="&#xa9;" horiz-adv-x="1566" 
d="M784 -21c-98.667 0 -191 19.167 -277 57.5s-161.333 91.666 -226 159.999s-115.334 147.833 -152.001 238.5s-55 188.667 -55 294s18.333 203.166 55 293.499s87.334 169.5 152.001 237.5s140 121 226 159s178.333 57 277 57c98 0 190 -19 276 -57s161.5 -91 226.5 -159
s115.833 -147.167 152.5 -237.5s55 -188.166 55 -293.499s-18.333 -203.333 -55 -294s-87.667 -170.167 -153 -238.5s-140.833 -121.666 -226.5 -159.999s-177.5 -57.5 -275.5 -57.5zM784 104c81.333 0 157.501 15.834 228.501 47.501s133.333 76 187 133
s95.667 123.333 126 199s45.5 157.5 45.5 245.5s-15.167 169.667 -45.5 245s-72.5 141.166 -126.5 197.499s-116.333 100.333 -187 132s-146.667 47.5 -228 47.5c-82 0 -158.5 -15.667 -229.5 -47s-133.5 -75.333 -187.5 -132s-96 -122.667 -126 -198s-45 -157 -45 -245
s15.167 -169.833 45.5 -245.5s72.333 -142 126 -199s116.167 -101.333 187.5 -133s147.666 -47.5 228.999 -47.5zM770.001 282.001c-106.667 0 -191.499 35.334 -254.499 106.001s-94.5 164.334 -94.5 281.001v119c0 115.333 31.5 208.666 94.5 279.999
s147.833 107 254.5 107c104.667 0 186.5 -26.5 245.5 -79.5s87.167 -129.167 84.5 -228.5l-2 -6h-148c0 62.667 -15 108.167 -45 136.5s-75 42.5 -135 42.5c-62.667 0 -110.667 -23 -144 -69s-50 -106.667 -50 -182v-120c0 -76.667 16.667 -137.834 50 -183.501
s81.333 -68.5 144 -68.5c60 0 104.833 14 134.5 42s44.5 73.667 44.5 137h148l2 -6c2.66699 -100.667 -25.333 -177.167 -84 -229.5s-140.334 -78.5 -245.001 -78.5z" />
    <glyph glyph-name="ordfeminine" unicode="&#xaa;" horiz-adv-x="867" 
d="M343 692c-79.333 0 -140.667 20.3301 -184 60.9971s-65 96.334 -65 167.001c0 74 28.167 131 84.5 171s138.5 60 246.5 60h137v51c0 41.333 -9.83301 72.833 -29.5 94.5s-48.5 32.5 -86.5 32.5c-44 0 -78 -8.66699 -102 -26s-36 -41.666 -36 -72.999l-165 13l-1 6
c-4 65.333 22.5 119.666 79.5 162.999s131.833 65 224.5 65c89.333 0 160.166 -23.667 212.499 -71s78.5 -115.666 78.5 -204.999v-314c0 -34 2 -65.667 6 -95s10.667 -58 20 -86h-177c-5.33301 14 -9.66602 28.833 -12.999 44.5s-6 32.167 -8 49.5
c-22 -31.333 -51.5 -57.166 -88.5 -77.499s-81.5 -30.5 -133.5 -30.5zM385.999 835.997c22.667 0 46.1699 4.66699 70.5029 14s46.166 21.333 65.499 36s32.666 29.667 39.999 45v103h-136c-49.333 0 -87.833 -10.667 -115.5 -32s-41.5 -47.333 -41.5 -78
c0 -28.667 9.66699 -50.5 29 -65.5s48.666 -22.5 87.999 -22.5z" />
    <glyph glyph-name="guillemotleft" unicode="&#xab;" horiz-adv-x="953" 
d="M284 116l-280 390v19l280 390h187l-240 -400l240 -399h-187zM679 116l-280 390v19l280 390h187l-240 -400l240 -399h-187z" />
    <glyph glyph-name="logicalnot" unicode="&#xac;" horiz-adv-x="1098" 
d="M749 374v260h-635v171h835v-431h-200z" />
    <glyph glyph-name="uni00AD" unicode="&#xad;" horiz-adv-x="815" 
d="M131 510v225h564v-225h-564z" />
    <glyph glyph-name="registered" unicode="&#xae;" horiz-adv-x="1566" 
d="M784 -21c-98.667 0 -191 19.167 -277 57.5s-161.333 91.666 -226 159.999s-115.334 147.833 -152.001 238.5s-55 188.667 -55 294s18.333 203.166 55 293.499s87.334 169.5 152.001 237.5s140 121 226 159s178.333 57 277 57c98 0 190 -19 276 -57s161.5 -91 226.5 -159
s115.833 -147.167 152.5 -237.5s55 -188.166 55 -293.499s-18.333 -203.333 -55 -294s-87.667 -170.167 -153 -238.5s-140.833 -121.666 -226.5 -159.999s-177.5 -57.5 -275.5 -57.5zM784 104c81.333 0 157.501 15.834 228.501 47.501s133.333 76 187 133
s95.667 123.333 126 199s45.5 157.5 45.5 245.5s-15.167 169.667 -45.5 245s-72.5 141.166 -126.5 197.499s-116.333 100.333 -187 132s-146.667 47.5 -228 47.5c-82 0 -158.5 -15.667 -229.5 -47s-133.5 -75.333 -187.5 -132s-96 -122.667 -126 -198s-45 -157 -45 -245
s15.167 -169.833 45.5 -245.5s72.333 -142 126 -199s116.167 -101.333 187.5 -133s147.666 -47.5 228.999 -47.5zM489.001 316.001l-0.00195312 849.999h281c100.667 0 180 -22.667 238 -68s87 -110 87 -194c0 -38.667 -9.66699 -72.5 -29 -101.5
s-47.666 -53.833 -84.999 -74.5c38.667 -20 66.834 -48.167 84.501 -84.5s26.5 -79.166 26.5 -128.499v-56c0 -27.333 1.16699 -51.833 3.5 -73.5s6.83301 -39.5 13.5 -53.5v-16h-155c-6 14 -9.66699 34.5 -11 61.5s-2 54.5 -2 82.5v54c0 47.333 -11.167 82.333 -33.5 105
s-58.833 34 -109.5 34h-158v-337h-151zM639.999 787h136c47.333 0 87.333 10 120 30s49 48.667 49 86c0 48 -13 81.667 -39 101s-71.333 29 -136 29h-130v-246z" />
    <glyph glyph-name="macron" unicode="&#xaf;" horiz-adv-x="811" 
d="M40 1312v176h731v-176h-731z" />
    <glyph glyph-name="degree" unicode="&#xb0;" horiz-adv-x="745" 
d="M378 932c-50 0 -95.668 12.168 -137.001 36.501s-74.166 57 -98.499 98s-36.5 86.5 -36.5 136.5s12.333 95.667 37 137s57.667 74.5 99 99.5s86.666 37.5 135.999 37.5c48.667 0 93.334 -12.5 134.001 -37.5s73.167 -58.167 97.5 -99.5s36.5 -87 36.5 -137
c0 -50.667 -12 -96.334 -36 -137.001s-56.333 -73.167 -97 -97.5s-85.667 -36.5 -135 -36.5zM377.999 1079c34.667 0 63.667 11.667 87 35s35 53 35 89s-11.833 66.333 -35.5 91s-52.5 37 -86.5 37c-34.667 0 -64.167 -12.333 -88.5 -37s-36.5 -55 -36.5 -91
c0 -35.333 12.167 -64.833 36.5 -88.5s53.833 -35.5 88.5 -35.5z" />
    <glyph glyph-name="plusminus" unicode="&#xb1;" horiz-adv-x="1040" 
d="M399 332v383h-333v232h333v363h256v-363h327v-232h-327v-383h-256zM119 1v228h834v-228h-834z" />
    <glyph glyph-name="uni00B2" unicode="&#xb2;" horiz-adv-x="823" 
d="M729 667v154.998h-346l-2 6l109 93c54.667 45.333 99 84.5 133 117.5s58.833 64.333 74.5 94s23.5 62.5 23.5 98.5c0 78.667 -26.167 139.667 -78.5 183s-126.5 65 -222.5 65c-65.333 0 -122.5 -11.5 -171.5 -34.5s-86.5 -53.833 -112.5 -92.5s-37.667 -81.667 -35 -129
l2 -6h201c0 31.333 9.33301 57 28 77s46.334 30 83.001 30c33.333 0 57.666 -8.83301 72.999 -26.5s23 -39.5 23 -65.5c0 -27.333 -5.83301 -52.166 -17.5 -74.499s-37.5 -50.166 -77.5 -83.499l-310 -252v-155h623z" />
    <glyph glyph-name="uni00B3" unicode="&#xb3;" horiz-adv-x="833" 
d="M401 1139h-112.001v-133h112c44 0 77.667 -9 101 -27s35 -43.667 35 -77c0 -29.333 -11.333 -52 -34 -68s-52.667 -24 -90 -24c-40 0 -70.5 7.83301 -91.5 23.5s-31.5 37.5 -31.5 65.5h-200l-2 -6c-2.66699 -50 10 -92.833 38 -128.5s67.167 -62.834 117.5 -81.501
s107.5 -28 171.5 -28c102 0 182.833 20.667 242.5 62s89.5 99.333 89.5 174c0 92 -48.667 154.333 -146 187c40.667 16.667 72.834 40.167 96.501 70.5s35.5 63.833 35.5 100.5c0 73.333 -29.5 129.833 -88.5 169.5s-138.833 59.5 -239.5 59.5
c-89.333 0 -163.333 -20.5 -222 -61.5s-86 -95.167 -82 -162.5l2 -6h200c0 20.667 9.33301 38.334 28 53.001s45 22 79 22c37.333 0 65.333 -8.5 84 -25.5s28 -38.167 28 -63.5c0 -63.333 -40.333 -95 -121 -95z" />
    <glyph glyph-name="acute" unicode="&#xb4;" horiz-adv-x="590" 
d="M40 1287l199 273h309l2 -6l-276 -267h-226h-8z" />
    <glyph glyph-name="uni00B5" unicode="&#xb5;" horiz-adv-x="1347" 
d="M211 -416l-0.000976562 1292l-156 30v176h156h291v-620c0 -99.333 14.833 -166.833 44.5 -202.5s74.5 -53.5 134.5 -53.5c50.667 0 92.667 9.16699 126 27.5s59.333 45.166 78 80.499v562l-156 30v176h447v-877l141 -30v-175h-412l-6 88
c-27.333 -36 -60 -63.167 -98 -81.5s-81.333 -27.5 -130 -27.5c-32.667 0 -63.167 3.5 -91.5 10.5s-54.166 17.833 -77.499 32.5v-438h-291z" />
    <glyph glyph-name="paragraph" unicode="&#xb6;" horiz-adv-x="1127" 
d="M473 0l-0.00195312 175.001l156 30v315h-83c-103.333 0 -191.666 19.667 -264.999 59s-129.5 94.166 -168.5 164.499s-58.5 151.833 -58.5 244.5c0 92 19.333 173.167 58 243.5s94.834 125.333 168.501 165s162.167 59.5 265.5 59.5h530v-176l-155 -30v-1045l155 -30
v-175h-603z" />
    <glyph glyph-name="periodcentered" unicode="&#xb7;" horiz-adv-x="553" 
d="M146 571v256h291v-256h-291z" />
    <glyph glyph-name="cedilla" unicode="&#xb8;" horiz-adv-x="500" 
d="M62 -459l-7 159.999c40 0 71.833 6.5 95.5 19.5s35.5 32.833 35.5 59.5c0 28.667 -11.667 48.5 -35 59.5s-60.333 17.833 -111 20.5l34 158h215l-13 -74c44.667 -7.33301 82 -24.166 112 -50.499s45 -65.5 45 -117.5c0 -71.333 -32.333 -128.333 -97 -171
s-156 -64 -274 -64z" />
    <glyph glyph-name="uni00B9" unicode="&#xb9;" horiz-adv-x="536" 
d="M439 665v812l-337 -23v-159h127v-630h210z" />
    <glyph glyph-name="ordmasculine" unicode="&#xba;" horiz-adv-x="914" 
d="M457 691c-106 0 -190.501 30.833 -253.501 92.5s-94.5 142.167 -94.5 241.5v117c0 98.667 31.5 179.167 94.5 241.5s146.833 93.5 251.5 93.5c105.333 0 189.5 -31.167 252.5 -93.5s94.5 -142.833 94.5 -241.5v-117c0 -99.333 -31.167 -179.833 -93.5 -241.5
s-146.166 -92.5 -251.499 -92.5zM456.999 837c54.667 0 96.667 17.167 126 51.5s44 79.833 44 136.5v117c0 55.333 -14.833 100.333 -44.5 135s-72.167 52 -127.5 52c-56 0 -98.5 -17.333 -127.5 -52s-43.5 -79.667 -43.5 -135v-117c0 -56.667 14.667 -102.167 44 -136.5
s72.333 -51.5 129 -51.5z" />
    <glyph glyph-name="guillemotright" unicode="&#xbb;" horiz-adv-x="973" 
d="M64 151l239 399l-239 400h187l280 -390v-19l-280 -390h-187zM470 151l239 399l-239 400h187l280 -390v-19l-280 -390h-187z" />
    <glyph glyph-name="onequarter" unicode="&#xbc;" horiz-adv-x="1413" 
d="M244 664v630h-127v159l337 23v-812h-210zM382 117l-142 75l711 1138l142 -75zM1127 0v139h-410l-13 126l423 536h211v-505h101v-157h-101v-139h-211zM919 296h208v257l-6 2l-13 -20z" />
    <glyph glyph-name="onehalf" unicode="&#xbd;" horiz-adv-x="1457" 
d="M380 117l-142 75l711 1138l142 -75zM229 664v630h-127v159l337 23v-812h-210zM829 0l0.00292969 155.001l310 252c40 33.333 65.833 61.666 77.5 84.999s17.5 46 17.5 68c0 28.667 -7.83301 52 -23.5 70s-39.834 27 -72.501 27c-36.667 0 -64.334 -10 -83.001 -30
s-28 -45.667 -28 -77h-201l-2 6c-2.66699 47.333 9 90.333 35 129s63.5 69.5 112.5 92.5s106.167 34.5 171.5 34.5c96 0 170.167 -21.333 222.5 -64s78.5 -102 78.5 -178c0 -38 -7.83301 -72.333 -23.5 -103s-40.334 -62.5 -74.001 -95.5s-78.167 -72.167 -133.5 -117.5
l-109 -93l2 -6h346v-155h-623z" />
    <glyph glyph-name="threequarters" unicode="&#xbe;" horiz-adv-x="1635" 
d="M598 117l-142 75l711 1138l142 -75zM1314 0v139h-410l-13 126l423 536h211v-505h101v-157h-101v-139h-211zM1106 296h208v257l-6 2l-13 -20zM406 656c-64.667 0 -121.998 9.33301 -171.998 28s-89 45.834 -117 81.501s-40.667 78.5 -38 128.5l2 6h200
c0 -28 10.5 -49.833 31.5 -65.5s50.5 -23.5 88.5 -23.5c40 0 71.167 8 93.5 24s33.5 38.333 33.5 67c0 34 -11.667 60 -35 78s-57 27 -101 27h-112v133h112c80.667 0 121 31 121 93c0 26 -9.33301 47.667 -28 65s-46.667 26 -84 26c-34 0 -60.333 -7.33301 -79 -22
s-28 -32.334 -28 -53.001h-200l-2 6c-4 67.333 23.667 121.5 83 162.5s135.666 61.5 228.999 61.5c96.667 0 174.167 -19.5 232.5 -58.5s87.5 -93.5 87.5 -163.5c0 -40 -11.833 -75.5 -35.5 -106.5s-55.834 -54.833 -96.501 -71.5c97.333 -32.667 146 -95.667 146 -189
c0 -74 -29.667 -131.5 -89 -172.5s-140.333 -61.5 -243 -61.5z" />
    <glyph glyph-name="questiondown" unicode="&#xbf;" horiz-adv-x="945" 
d="M695 669c0 -48.667 -2.99805 -89.502 -8.99805 -122.502s-15.833 -62.167 -29.5 -87.5s-33.167 -50.333 -58.5 -75s-58 -52.667 -98 -84c-34.667 -28 -63.334 -57 -86.001 -87s-40 -61 -52 -93s-18 -65 -18 -99c0 -57.333 15.833 -102.166 47.5 -134.499
s76.167 -48.5 133.5 -48.5c48 0 89.167 13.333 123.5 40s51.833 66.667 52.5 120h283l3 -6c1.33301 -81.333 -17.5 -150.833 -56.5 -208.5s-93.333 -101.667 -163 -132s-150.167 -45.5 -241.5 -45.5c-148.667 0 -264.834 36.5 -348.501 109.5s-125.5 172.167 -125.5 297.5
c0 58 11.167 111.667 33.5 161s53 96 92 140s84.167 87.667 135.5 131c25.333 21.333 44.5 41.833 57.5 61.5s21.667 42.334 26 68.001s6.5 57.167 6.5 94.5h292zM695.002 1083v-256h-292v256h292z" />
    <glyph glyph-name="Agrave" unicode="&#xc0;" horiz-adv-x="1512" 
d="M41 0v175l104 15l463 1266h299l460 -1266l104 -15v-175h-496v175l101 18l-64 200h-512l-64 -200l101 -18v-175h-496zM569 608h374l-170 499l-14 44h-6l-15 -47zM933 1569h-8h-226l-276 267l2 6h309z" />
    <glyph glyph-name="Aacute" unicode="&#xc1;" horiz-adv-x="1512" 
d="M41 0v175l104 15l463 1266h299l460 -1266l104 -15v-175h-496v175l101 18l-64 200h-512l-64 -200l101 -18v-175h-496zM569 608h374l-170 499l-14 44h-6l-15 -47zM583 1569l199 273h309l2 -6l-276 -267h-226h-8z" />
    <glyph glyph-name="Acircumflex" unicode="&#xc2;" horiz-adv-x="1512" 
d="M41 0v175l104 15l463 1266h299l460 -1266l104 -15v-175h-496v175l101 18l-64 200h-512l-64 -200l101 -18v-175h-496zM569 608h374l-170 499l-14 44h-6l-15 -47zM396 1573v26l255 243h215l253 -246v-23h-228l-133 144l-137 -144h-225z" />
    <glyph glyph-name="Atilde" unicode="&#xc3;" horiz-adv-x="1512" 
d="M41 0v175l104 15l463 1266h299l460 -1266l104 -15v-175h-496v175l101 18l-64 200h-512l-64 -200l101 -18v-175h-496zM569 608h374l-170 499l-14 44h-6l-15 -47zM534 1565l-151 40.001c0 44.667 10.5 86 31.5 124s48.833 68.667 83.5 92s72.334 35 113.001 35
c32 0 65.333 -8 100 -24s67.834 -32.167 99.501 -48.5s58.5 -24.5 80.5 -24.5c27.333 0.666992 49.166 11.167 65.499 31.5s24.5 46.166 24.5 77.499l151 -42c0 -46 -10.5 -87.833 -31.5 -125.5s-48.833 -67.667 -83.5 -90s-72.667 -33.5 -114 -33.5
c-34.667 0 -69.334 8 -104.001 24s-67 32.167 -97 48.5s-56.333 24.5 -79 24.5c-27.333 0 -49 -10.667 -65 -32s-24 -47 -24 -77z" />
    <glyph glyph-name="Adieresis" unicode="&#xc4;" horiz-adv-x="1512" 
d="M41 0v175l104 15l463 1266h299l460 -1266l104 -15v-175h-496v175l101 18l-64 200h-512l-64 -200l101 -18v-175h-496zM569 608h374l-170 499l-14 44h-6l-15 -47zM842 1593v249h281v-249h-281zM391 1593v249h281v-249h-281z" />
    <glyph glyph-name="Aring" unicode="&#xc5;" horiz-adv-x="1512" 
d="M41 0v175l104 15l463 1266h299l460 -1266l104 -15v-175h-496v175l101 18l-64 200h-512l-64 -200l101 -18v-175h-496zM569 608h374l-170 499l-14 44h-6l-15 -47zM760 1510c-66.667 0 -122.5 20 -167.5 60s-67.5 91.333 -67.5 154c0 62 22.667 114 68 156s101 63 167 63
c64.667 0 119.167 -21 163.5 -63s66.5 -94 66.5 -156c0 -62.667 -22.167 -114 -66.5 -154s-98.833 -60 -163.5 -60zM760 1627c27.333 0 49.5 9 66.5 27s25.5 41.333 25.5 70c0 29.333 -8.5 53.166 -25.5 71.499s-39.167 27.5 -66.5 27.5c-28 0 -51.167 -9.16699 -69.5 -27.5
s-27.5 -42.166 -27.5 -71.499c0 -28.667 9.16699 -52 27.5 -70s41.5 -27 69.5 -27z" />
    <glyph glyph-name="AE" unicode="&#xc6;" horiz-adv-x="2092" 
d="M66 0v175l139 20l700 1261h1036v-369h-224l-12 141h-379l16 -366h516v-227h-507l18 -408h398l13 141h223v-368h-1075v175l150 28l-6 151h-448l-87 -165l86 -14v-175h-557zM740 582h322l-24 554l-5 1l-10 -21z" />
    <glyph glyph-name="Ccedilla" unicode="&#xc7;" horiz-adv-x="1321" 
d="M749 -21c-141.333 0 -264.332 29.5 -368.999 88.5s-185.5 142.667 -242.5 251s-85.5 236.5 -85.5 384.5v49c0 141.333 27.5 266.5 82.5 375.5s133.5 194.5 235.5 256.5s223.333 93 364 93c98.667 0 191.167 -14 277.5 -42s163.5 -70.667 231.5 -128v-352h-217l-30 221
c-22 16 -46 29.667 -72 41s-54.167 20 -84.5 26s-63.166 9 -98.499 9c-82.667 0 -153.667 -20.333 -213 -61s-104.833 -98.167 -136.5 -172.5s-47.5 -162.5 -47.5 -264.5v-51c0 -102 16.667 -190.333 50 -265s80.666 -132.5 141.999 -173.5s134 -61.5 218 -61.5
c42 0 84.167 4.83301 126.5 14.5s80.833 22.167 115.5 37.5l30 205h217v-348c-56.667 -37.333 -127.334 -68.833 -212.001 -94.5s-178.667 -38.5 -282 -38.5zM600.001 -459l-7 159.999c40 0 71.833 6.5 95.5 19.5s35.5 32.833 35.5 59.5c0 28.667 -11.667 48.5 -35 59.5
s-60.333 17.833 -111 20.5l34 158h215l-13 -74c44.667 -7.33301 82 -24.166 112 -50.499s45 -65.5 45 -117.5c0 -71.333 -32.333 -128.333 -97 -171s-156 -64 -274 -64z" />
    <glyph glyph-name="Egrave" unicode="&#xc8;" horiz-adv-x="1308" 
d="M56 0v175l155 30v1045l-155 30v176h1130v-393h-224l-13 168h-446v-366h493v-225h-493v-416h470l13 174h222v-398h-1152zM829 1569h-8h-226l-276 267l2 6h309z" />
    <glyph glyph-name="Eacute" unicode="&#xc9;" horiz-adv-x="1308" 
d="M56 0v175l155 30v1045l-155 30v176h1130v-393h-224l-13 168h-446v-366h493v-225h-493v-416h470l13 174h222v-398h-1152zM480 1569l199 273h309l2 -6l-276 -267h-226h-8z" />
    <glyph glyph-name="Ecircumflex" unicode="&#xca;" horiz-adv-x="1308" 
d="M56 0v175l155 30v1045l-155 30v176h1130v-393h-224l-13 168h-446v-366h493v-225h-493v-416h470l13 174h222v-398h-1152zM292 1573v26l255 243h215l253 -246v-23h-228l-133 144l-137 -144h-225z" />
    <glyph glyph-name="Edieresis" unicode="&#xcb;" horiz-adv-x="1308" 
d="M56 0v175l155 30v1045l-155 30v176h1130v-393h-224l-13 168h-446v-366h493v-225h-493v-416h470l13 174h222v-398h-1152zM739 1593v249h281v-249h-281zM288 1593v249h281v-249h-281z" />
    <glyph glyph-name="Igrave" unicode="&#xcc;" horiz-adv-x="714" 
d="M56 0v175l155 30v1045l-155 30v176h602v-176l-155 -30v-1045l155 -30v-175h-602zM532 1569h-8h-226l-276 267l2 6h309z" />
    <glyph glyph-name="Iacute" unicode="&#xcd;" horiz-adv-x="714" 
d="M56 0v175l155 30v1045l-155 30v176h602v-176l-155 -30v-1045l155 -30v-175h-602zM183 1569l199 273h309l2 -6l-276 -267h-226h-8z" />
    <glyph glyph-name="Icircumflex" unicode="&#xce;" horiz-adv-x="714" 
d="M56 0v175l155 30v1045l-155 30v176h602v-176l-155 -30v-1045l155 -30v-175h-602zM-4 1573v26l255 243h215l253 -246v-23h-228l-133 144l-137 -144h-225z" />
    <glyph glyph-name="Idieresis" unicode="&#xcf;" horiz-adv-x="714" 
d="M56 0v175l155 30v1045l-155 30v176h602v-176l-155 -30v-1045l155 -30v-175h-602zM442 1593v249h281v-249h-281zM-9 1593v249h281v-249h-281z" />
    <glyph glyph-name="Eth" unicode="&#xd0;" horiz-adv-x="1426" 
d="M56 0v175l157 33v1038l-157 34v176h157h482c130 0 244.667 -30.5 344 -91.5s176.833 -145.333 232.5 -253s83.5 -231.167 83.5 -370.5v-27c0 -138 -27.5 -260.833 -82.5 -368.5s-131.833 -192.167 -230.5 -253.5s-213 -92 -343 -92h-643zM505 223l179 -0.000976562
c80.667 0 149 21.167 205 63.5s98.833 100.5 128.5 174.5s44.5 158.333 44.5 253v28c0 96 -14.833 180.833 -44.5 254.5s-72.5 131.334 -128.5 173.001s-124.333 62.5 -205 62.5h-179v-1009zM45 659.999v155h659v-155h-659z" />
    <glyph glyph-name="Ntilde" unicode="&#xd1;" horiz-adv-x="1604" 
d="M56 0v175l155 30v1045l-155 30v176h155h296l634 -1010l6 1v803l-186 30v176h447h156v-176l-156 -30v-1250h-282l-648 1000l-6 -1v-794l187 -30v-175h-603zM578 1565l-151 40.001c0 44.667 10.5 86 31.5 124s48.833 68.667 83.5 92s72.334 35 113.001 35
c32 0 65.333 -8 100 -24s67.834 -32.167 99.501 -48.5s58.5 -24.5 80.5 -24.5c27.333 0.666992 49.166 11.167 65.499 31.5s24.5 46.166 24.5 77.499l151 -42c0 -46 -10.5 -87.833 -31.5 -125.5s-48.833 -67.667 -83.5 -90s-72.667 -33.5 -114 -33.5
c-34.667 0 -69.334 8 -104.001 24s-67 32.167 -97 48.5s-56.333 24.5 -79 24.5c-27.333 0 -49 -10.667 -65 -32s-24 -47 -24 -77z" />
    <glyph glyph-name="Ograve" unicode="&#xd2;" horiz-adv-x="1446" 
d="M723 -21c-98 0 -187.334 18.333 -268.001 55s-150.167 88.167 -208.5 154.5s-103.166 144.333 -134.499 234s-47 187.834 -47 294.501v22c0 106 15.667 203.833 47 293.5s76 167.834 134 234.501s127.333 118.334 208 155.001s170 55 268 55
c98.667 0 188.667 -18.333 270 -55s151.333 -88.334 210 -155.001s103.834 -144.834 135.501 -234.501s47.5 -187.5 47.5 -293.5v-22c0 -106.667 -15.833 -204.834 -47.5 -294.501s-76.834 -167.667 -135.501 -234s-128.5 -117.833 -209.5 -154.5s-170.833 -55 -269.5 -55z
M722.999 206c82.667 0 151.333 21.333 206 64s95.834 102.334 123.501 179.001s41.5 166 41.5 268v24c0 100.667 -14 189.167 -42 265.5s-69.5 135.833 -124.5 178.5s-123.5 64 -205.5 64c-81.333 0 -149 -21.167 -203 -63.5s-94.5 -101.5 -121.5 -177.5
s-40.5 -165 -40.5 -267v-24c0 -102 13.5 -191.333 40.5 -268s67.667 -136.334 122 -179.001s122.166 -64 203.499 -64zM897.998 1569h-8h-226l-276 267l2 6h309z" />
    <glyph glyph-name="Oacute" unicode="&#xd3;" horiz-adv-x="1446" 
d="M723 -21c-98 0 -187.334 18.333 -268.001 55s-150.167 88.167 -208.5 154.5s-103.166 144.333 -134.499 234s-47 187.834 -47 294.501v22c0 106 15.667 203.833 47 293.5s76 167.834 134 234.501s127.333 118.334 208 155.001s170 55 268 55
c98.667 0 188.667 -18.333 270 -55s151.333 -88.334 210 -155.001s103.834 -144.834 135.501 -234.501s47.5 -187.5 47.5 -293.5v-22c0 -106.667 -15.833 -204.834 -47.5 -294.501s-76.834 -167.667 -135.501 -234s-128.5 -117.833 -209.5 -154.5s-170.833 -55 -269.5 -55z
M722.999 206c82.667 0 151.333 21.333 206 64s95.834 102.334 123.501 179.001s41.5 166 41.5 268v24c0 100.667 -14 189.167 -42 265.5s-69.5 135.833 -124.5 178.5s-123.5 64 -205.5 64c-81.333 0 -149 -21.167 -203 -63.5s-94.5 -101.5 -121.5 -177.5
s-40.5 -165 -40.5 -267v-24c0 -102 13.5 -191.333 40.5 -268s67.667 -136.334 122 -179.001s122.166 -64 203.499 -64zM548.998 1569l199 273h309l2 -6l-276 -267h-226h-8z" />
    <glyph glyph-name="Ocircumflex" unicode="&#xd4;" horiz-adv-x="1446" 
d="M723 -21c-98 0 -187.334 18.333 -268.001 55s-150.167 88.167 -208.5 154.5s-103.166 144.333 -134.499 234s-47 187.834 -47 294.501v22c0 106 15.667 203.833 47 293.5s76 167.834 134 234.501s127.333 118.334 208 155.001s170 55 268 55
c98.667 0 188.667 -18.333 270 -55s151.333 -88.334 210 -155.001s103.834 -144.834 135.501 -234.501s47.5 -187.5 47.5 -293.5v-22c0 -106.667 -15.833 -204.834 -47.5 -294.501s-76.834 -167.667 -135.501 -234s-128.5 -117.833 -209.5 -154.5s-170.833 -55 -269.5 -55z
M722.999 206c82.667 0 151.333 21.333 206 64s95.834 102.334 123.501 179.001s41.5 166 41.5 268v24c0 100.667 -14 189.167 -42 265.5s-69.5 135.833 -124.5 178.5s-123.5 64 -205.5 64c-81.333 0 -149 -21.167 -203 -63.5s-94.5 -101.5 -121.5 -177.5
s-40.5 -165 -40.5 -267v-24c0 -102 13.5 -191.333 40.5 -268s67.667 -136.334 122 -179.001s122.166 -64 203.499 -64zM361.998 1573v26l255 243h215l253 -246v-23h-228l-133 144l-137 -144h-225z" />
    <glyph glyph-name="Otilde" unicode="&#xd5;" horiz-adv-x="1446" 
d="M723 -21c-98 0 -187.334 18.333 -268.001 55s-150.167 88.167 -208.5 154.5s-103.166 144.333 -134.499 234s-47 187.834 -47 294.501v22c0 106 15.667 203.833 47 293.5s76 167.834 134 234.501s127.333 118.334 208 155.001s170 55 268 55
c98.667 0 188.667 -18.333 270 -55s151.333 -88.334 210 -155.001s103.834 -144.834 135.501 -234.501s47.5 -187.5 47.5 -293.5v-22c0 -106.667 -15.833 -204.834 -47.5 -294.501s-76.834 -167.667 -135.501 -234s-128.5 -117.833 -209.5 -154.5s-170.833 -55 -269.5 -55z
M722.999 206c82.667 0 151.333 21.333 206 64s95.834 102.334 123.501 179.001s41.5 166 41.5 268v24c0 100.667 -14 189.167 -42 265.5s-69.5 135.833 -124.5 178.5s-123.5 64 -205.5 64c-81.333 0 -149 -21.167 -203 -63.5s-94.5 -101.5 -121.5 -177.5
s-40.5 -165 -40.5 -267v-24c0 -102 13.5 -191.333 40.5 -268s67.667 -136.334 122 -179.001s122.166 -64 203.499 -64zM499.998 1565l-151 40.001c0 44.667 10.5 86 31.5 124s48.833 68.667 83.5 92s72.334 35 113.001 35c32 0 65.333 -8 100 -24
s67.834 -32.167 99.501 -48.5s58.5 -24.5 80.5 -24.5c27.333 0.666992 49.166 11.167 65.499 31.5s24.5 46.166 24.5 77.499l151 -42c0 -46 -10.5 -87.833 -31.5 -125.5s-48.833 -67.667 -83.5 -90s-72.667 -33.5 -114 -33.5c-34.667 0 -69.334 8 -104.001 24
s-67 32.167 -97 48.5s-56.333 24.5 -79 24.5c-27.333 0 -49 -10.667 -65 -32s-24 -47 -24 -77z" />
    <glyph glyph-name="Odieresis" unicode="&#xd6;" horiz-adv-x="1446" 
d="M723 -21c-98 0 -187.334 18.333 -268.001 55s-150.167 88.167 -208.5 154.5s-103.166 144.333 -134.499 234s-47 187.834 -47 294.501v22c0 106 15.667 203.833 47 293.5s76 167.834 134 234.501s127.333 118.334 208 155.001s170 55 268 55
c98.667 0 188.667 -18.333 270 -55s151.333 -88.334 210 -155.001s103.834 -144.834 135.501 -234.501s47.5 -187.5 47.5 -293.5v-22c0 -106.667 -15.833 -204.834 -47.5 -294.501s-76.834 -167.667 -135.501 -234s-128.5 -117.833 -209.5 -154.5s-170.833 -55 -269.5 -55z
M722.999 206c82.667 0 151.333 21.333 206 64s95.834 102.334 123.501 179.001s41.5 166 41.5 268v24c0 100.667 -14 189.167 -42 265.5s-69.5 135.833 -124.5 178.5s-123.5 64 -205.5 64c-81.333 0 -149 -21.167 -203 -63.5s-94.5 -101.5 -121.5 -177.5
s-40.5 -165 -40.5 -267v-24c0 -102 13.5 -191.333 40.5 -268s67.667 -136.334 122 -179.001s122.166 -64 203.499 -64zM807.998 1593v249h281v-249h-281zM356.998 1593v249h281v-249h-281z" />
    <glyph glyph-name="multiply" unicode="&#xd7;" horiz-adv-x="1068" 
d="M232 207l-171 164l309 315l-309 315l171 164l304 -310l304 310l171 -164l-309 -315l309 -315l-171 -164l-304 310z" />
    <glyph glyph-name="Oslash" unicode="&#xd8;" horiz-adv-x="1446" 
d="M723 -21c-98 0 -187.334 18.333 -268.001 55s-150.167 88.167 -208.5 154.5s-103.166 144.333 -134.499 234s-47 187.834 -47 294.501v22c0 106 15.667 203.833 47 293.5s76 167.834 134 234.501s127.333 118.334 208 155.001s170 55 268 55
c98.667 0 188.667 -18.333 270 -55s151.333 -88.334 210 -155.001s103.834 -144.834 135.501 -234.501s47.5 -187.5 47.5 -293.5v-22c0 -106.667 -15.833 -204.834 -47.5 -294.501s-76.834 -167.667 -135.501 -234s-128.5 -117.833 -209.5 -154.5s-170.833 -55 -269.5 -55z
M722.999 206c82.667 0 151.333 21.333 206 64s95.834 102.334 123.501 179.001s41.5 166 41.5 268v24c0 100.667 -14 189.167 -42 265.5s-69.5 135.833 -124.5 178.5s-123.5 64 -205.5 64c-81.333 0 -149 -21.167 -203 -63.5s-94.5 -101.5 -121.5 -177.5
s-40.5 -165 -40.5 -267v-24c0 -102 13.5 -191.333 40.5 -268s67.667 -136.334 122 -179.001s122.166 -64 203.499 -64zM163.998 -85l940 1613h179l-940 -1613h-179z" />
    <glyph glyph-name="Ugrave" unicode="&#xd9;" horiz-adv-x="1555" 
d="M776 -21c-115.333 0 -216.83 20 -304.497 60s-155.834 98 -204.501 174s-73 168.333 -73 277v760l-155 30v176h603v-176l-156 -30v-760c0 -64 11.667 -117.333 35 -160s56.666 -74.5 99.999 -95.5s95 -31.5 155 -31.5c61.333 0 113.833 10.5 157.5 31.5
s77.167 52.833 100.5 95.5s35 96 35 160v760l-155 30v176h603v-176l-156 -30v-760c0 -108.667 -24.5 -201.167 -73.5 -277.5s-117.333 -134.333 -205 -174s-189.834 -59.5 -306.501 -59.5zM953.003 1569h-8h-226l-276 267l2 6h309z" />
    <glyph glyph-name="Uacute" unicode="&#xda;" horiz-adv-x="1555" 
d="M776 -21c-115.333 0 -216.83 20 -304.497 60s-155.834 98 -204.501 174s-73 168.333 -73 277v760l-155 30v176h603v-176l-156 -30v-760c0 -64 11.667 -117.333 35 -160s56.666 -74.5 99.999 -95.5s95 -31.5 155 -31.5c61.333 0 113.833 10.5 157.5 31.5
s77.167 52.833 100.5 95.5s35 96 35 160v760l-155 30v176h603v-176l-156 -30v-760c0 -108.667 -24.5 -201.167 -73.5 -277.5s-117.333 -134.333 -205 -174s-189.834 -59.5 -306.501 -59.5zM603.003 1569l199 273h309l2 -6l-276 -267h-226h-8z" />
    <glyph glyph-name="Ucircumflex" unicode="&#xdb;" horiz-adv-x="1555" 
d="M776 -21c-115.333 0 -216.83 20 -304.497 60s-155.834 98 -204.501 174s-73 168.333 -73 277v760l-155 30v176h603v-176l-156 -30v-760c0 -64 11.667 -117.333 35 -160s56.666 -74.5 99.999 -95.5s95 -31.5 155 -31.5c61.333 0 113.833 10.5 157.5 31.5
s77.167 52.833 100.5 95.5s35 96 35 160v760l-155 30v176h603v-176l-156 -30v-760c0 -108.667 -24.5 -201.167 -73.5 -277.5s-117.333 -134.333 -205 -174s-189.834 -59.5 -306.501 -59.5zM416.003 1573v26l255 243h215l253 -246v-23h-228l-133 144l-137 -144h-225z" />
    <glyph glyph-name="Udieresis" unicode="&#xdc;" horiz-adv-x="1555" 
d="M776 -21c-115.333 0 -216.83 20 -304.497 60s-155.834 98 -204.501 174s-73 168.333 -73 277v760l-155 30v176h603v-176l-156 -30v-760c0 -64 11.667 -117.333 35 -160s56.666 -74.5 99.999 -95.5s95 -31.5 155 -31.5c61.333 0 113.833 10.5 157.5 31.5
s77.167 52.833 100.5 95.5s35 96 35 160v760l-155 30v176h603v-176l-156 -30v-760c0 -108.667 -24.5 -201.167 -73.5 -277.5s-117.333 -134.333 -205 -174s-189.834 -59.5 -306.501 -59.5zM862.003 1593v249h281v-249h-281zM411.003 1593v249h281v-249h-281z" />
    <glyph glyph-name="Yacute" unicode="&#xdd;" horiz-adv-x="1508" 
d="M452 0v175l156 30v294l-432 761l-140 20v176h581v-176l-119 -17l242 -465l22 -47l6 1l22 44l269 467l-160 17v176h570v-176l-144 -20l-426 -738v-317l156 -30v-175h-603zM580 1569l199 273h309l2 -6l-276 -267h-226h-8z" />
    <glyph glyph-name="Thorn" unicode="&#xde;" horiz-adv-x="1291" 
d="M67 0v175l156 30v1045l-156 30v176h448h156v-176l-156 -30v-89h208c166.667 0 296.5 -39.167 389.5 -117.5s139.5 -180.5 139.5 -306.5c0 -126.667 -46.5 -229 -139.5 -307s-222.833 -117 -389.5 -117h-208v-108l156 -30v-175h-604zM515 532l208 0.000976562
c52.667 0 96.5 8.83301 131.5 26.5s61.333 42 79 73s26.5 65.5 26.5 103.5c0 38.667 -8.83301 73.667 -26.5 105s-44 56.166 -79 74.499s-78.833 27.5 -131.5 27.5h-208v-410z" />
    <glyph glyph-name="germandbls" unicode="&#xdf;" horiz-adv-x="1321" 
d="M839 -21c-34 0 -68.1689 2.16211 -102.502 6.49512s-65.5 10.833 -93.5 19.5s-50.333 18.667 -67 30l54 223c24 -14.667 53.833 -27.5 89.5 -38.5s73.5 -16.5 113.5 -16.5c50.667 0 90.334 12.667 119.001 38s43 59.666 43 102.999c0 32 -10.167 63.167 -30.5 93.5
s-45.333 60.5 -75 90.5l-89 93c-29.667 32 -54.667 65.833 -75 101.5s-30.5 74.167 -30.5 115.5c0 30.667 5.5 61.334 16.5 92.001s23.833 61.834 38.5 93.501s27.5 63.167 38.5 94.5s16.5 62.333 16.5 93c0 42 -12.5 76.833 -37.5 104.5s-59.833 41.5 -104.5 41.5
c-54.667 0 -97.834 -21.333 -129.501 -64s-47.5 -101 -47.5 -175v-1118h-447v175l155 30v911c0 99.333 19.167 183.666 57.5 252.999s92.666 122 162.999 158s152.833 54 247.5 54c84.667 0 159.334 -14.667 224.001 -44s115.334 -71.166 152.001 -125.499
s55 -119.166 55 -194.499c0 -40 -5.5 -77 -16.5 -111s-23.333 -65.667 -37 -95s-26 -57 -37 -83s-16.5 -50.667 -16.5 -74c0 -30.667 10 -59.167 30 -85.5s45 -53 75 -80s60 -56.667 90 -89s55 -69.166 75 -110.499s30 -89.666 30 -144.999
c0 -80 -17.167 -147.167 -51.5 -201.5s-84.666 -95.166 -150.999 -122.499s-147.833 -41 -244.5 -41z" />
    <glyph glyph-name="agrave" unicode="&#xe0;" horiz-adv-x="1154" 
d="M425 -21c-107.333 0 -192.669 28.834 -256.002 86.501s-95 136.167 -95 235.5c0 68 18.5 127.667 55.5 179s91.667 91.666 164 120.999s161.5 44 267.5 44h143v80c0 52 -15.167 94.167 -45.5 126.5s-75.833 48.5 -136.5 48.5c-31.333 0 -59.5 -3.83301 -84.5 -11.5
s-47.5 -18.5 -67.5 -32.5l-23 -143h-210l-4 281c56.667 32 118 58 184 78s139.667 30 221 30c141.333 0 253 -32.833 335 -98.5s123 -159.5 123 -281.5v-446c0 -14.667 0.166992 -29.167 0.5 -43.5s1.5 -28.166 3.5 -41.499l113 -16v-175h-362
c-7.33301 18.667 -14.666 38.667 -21.999 60s-12.666 42.666 -15.999 63.999c-34.667 -44 -75.5 -79.167 -122.5 -105.5s-102.167 -39.5 -165.5 -39.5zM502.997 195.001c40.667 0 79.334 9.16602 116.001 27.499s65 42.5 85 72.5v171h-144c-64 0 -112.5 -14.667 -145.5 -44
s-49.5 -64.666 -49.5 -105.999c0 -38.667 12.167 -68.5 36.5 -89.5s58.166 -31.5 101.499 -31.5zM721.997 1287h-8h-226l-276 267l2 6h309z" />
    <glyph glyph-name="aacute" unicode="&#xe1;" horiz-adv-x="1154" 
d="M425 -21c-107.333 0 -192.669 28.834 -256.002 86.501s-95 136.167 -95 235.5c0 68 18.5 127.667 55.5 179s91.667 91.666 164 120.999s161.5 44 267.5 44h143v80c0 52 -15.167 94.167 -45.5 126.5s-75.833 48.5 -136.5 48.5c-31.333 0 -59.5 -3.83301 -84.5 -11.5
s-47.5 -18.5 -67.5 -32.5l-23 -143h-210l-4 281c56.667 32 118 58 184 78s139.667 30 221 30c141.333 0 253 -32.833 335 -98.5s123 -159.5 123 -281.5v-446c0 -14.667 0.166992 -29.167 0.5 -43.5s1.5 -28.166 3.5 -41.499l113 -16v-175h-362
c-7.33301 18.667 -14.666 38.667 -21.999 60s-12.666 42.666 -15.999 63.999c-34.667 -44 -75.5 -79.167 -122.5 -105.5s-102.167 -39.5 -165.5 -39.5zM502.997 195.001c40.667 0 79.334 9.16602 116.001 27.499s65 42.5 85 72.5v171h-144c-64 0 -112.5 -14.667 -145.5 -44
s-49.5 -64.666 -49.5 -105.999c0 -38.667 12.167 -68.5 36.5 -89.5s58.166 -31.5 101.499 -31.5zM371.997 1287l199 273h309l2 -6l-276 -267h-226h-8z" />
    <glyph glyph-name="acircumflex" unicode="&#xe2;" horiz-adv-x="1154" 
d="M425 -21c-107.333 0 -192.669 28.834 -256.002 86.501s-95 136.167 -95 235.5c0 68 18.5 127.667 55.5 179s91.667 91.666 164 120.999s161.5 44 267.5 44h143v80c0 52 -15.167 94.167 -45.5 126.5s-75.833 48.5 -136.5 48.5c-31.333 0 -59.5 -3.83301 -84.5 -11.5
s-47.5 -18.5 -67.5 -32.5l-23 -143h-210l-4 281c56.667 32 118 58 184 78s139.667 30 221 30c141.333 0 253 -32.833 335 -98.5s123 -159.5 123 -281.5v-446c0 -14.667 0.166992 -29.167 0.5 -43.5s1.5 -28.166 3.5 -41.499l113 -16v-175h-362
c-7.33301 18.667 -14.666 38.667 -21.999 60s-12.666 42.666 -15.999 63.999c-34.667 -44 -75.5 -79.167 -122.5 -105.5s-102.167 -39.5 -165.5 -39.5zM502.997 195.001c40.667 0 79.334 9.16602 116.001 27.499s65 42.5 85 72.5v171h-144c-64 0 -112.5 -14.667 -145.5 -44
s-49.5 -64.666 -49.5 -105.999c0 -38.667 12.167 -68.5 36.5 -89.5s58.166 -31.5 101.499 -31.5zM184.997 1291v26l255 243h215l253 -246v-23h-228l-133 144l-137 -144h-225z" />
    <glyph glyph-name="atilde" unicode="&#xe3;" horiz-adv-x="1154" 
d="M425 -21c-107.333 0 -192.669 28.834 -256.002 86.501s-95 136.167 -95 235.5c0 68 18.5 127.667 55.5 179s91.667 91.666 164 120.999s161.5 44 267.5 44h143v80c0 52 -15.167 94.167 -45.5 126.5s-75.833 48.5 -136.5 48.5c-31.333 0 -59.5 -3.83301 -84.5 -11.5
s-47.5 -18.5 -67.5 -32.5l-23 -143h-210l-4 281c56.667 32 118 58 184 78s139.667 30 221 30c141.333 0 253 -32.833 335 -98.5s123 -159.5 123 -281.5v-446c0 -14.667 0.166992 -29.167 0.5 -43.5s1.5 -28.166 3.5 -41.499l113 -16v-175h-362
c-7.33301 18.667 -14.666 38.667 -21.999 60s-12.666 42.666 -15.999 63.999c-34.667 -44 -75.5 -79.167 -122.5 -105.5s-102.167 -39.5 -165.5 -39.5zM502.997 195.001c40.667 0 79.334 9.16602 116.001 27.499s65 42.5 85 72.5v171h-144c-64 0 -112.5 -14.667 -145.5 -44
s-49.5 -64.666 -49.5 -105.999c0 -38.667 12.167 -68.5 36.5 -89.5s58.166 -31.5 101.499 -31.5zM322.997 1283l-151 40.001c0 44.667 10.5 86 31.5 124s48.833 68.667 83.5 92s72.334 35 113.001 35c32 0 65.333 -8 100 -24s67.834 -32.167 99.501 -48.5
s58.5 -24.5 80.5 -24.5c27.333 0.666992 49.166 11.167 65.499 31.5s24.5 46.166 24.5 77.499l151 -42c0 -46 -10.5 -87.833 -31.5 -125.5s-48.833 -67.667 -83.5 -90s-72.667 -33.5 -114 -33.5c-34.667 0 -69.334 8 -104.001 24s-67 32.167 -97 48.5s-56.333 24.5 -79 24.5
c-27.333 0 -49 -10.667 -65 -32s-24 -47 -24 -77z" />
    <glyph glyph-name="adieresis" unicode="&#xe4;" horiz-adv-x="1154" 
d="M425 -21c-107.333 0 -192.669 28.834 -256.002 86.501s-95 136.167 -95 235.5c0 68 18.5 127.667 55.5 179s91.667 91.666 164 120.999s161.5 44 267.5 44h143v80c0 52 -15.167 94.167 -45.5 126.5s-75.833 48.5 -136.5 48.5c-31.333 0 -59.5 -3.83301 -84.5 -11.5
s-47.5 -18.5 -67.5 -32.5l-23 -143h-210l-4 281c56.667 32 118 58 184 78s139.667 30 221 30c141.333 0 253 -32.833 335 -98.5s123 -159.5 123 -281.5v-446c0 -14.667 0.166992 -29.167 0.5 -43.5s1.5 -28.166 3.5 -41.499l113 -16v-175h-362
c-7.33301 18.667 -14.666 38.667 -21.999 60s-12.666 42.666 -15.999 63.999c-34.667 -44 -75.5 -79.167 -122.5 -105.5s-102.167 -39.5 -165.5 -39.5zM502.997 195.001c40.667 0 79.334 9.16602 116.001 27.499s65 42.5 85 72.5v171h-144c-64 0 -112.5 -14.667 -145.5 -44
s-49.5 -64.666 -49.5 -105.999c0 -38.667 12.167 -68.5 36.5 -89.5s58.166 -31.5 101.499 -31.5zM631.997 1311v249h281v-249h-281zM180.997 1311v249h281v-249h-281z" />
    <glyph glyph-name="aring" unicode="&#xe5;" horiz-adv-x="1154" 
d="M425 -21c-107.333 0 -192.669 28.834 -256.002 86.501s-95 136.167 -95 235.5c0 68 18.5 127.667 55.5 179s91.667 91.666 164 120.999s161.5 44 267.5 44h143v80c0 52 -15.167 94.167 -45.5 126.5s-75.833 48.5 -136.5 48.5c-31.333 0 -59.5 -3.83301 -84.5 -11.5
s-47.5 -18.5 -67.5 -32.5l-23 -143h-210l-4 281c56.667 32 118 58 184 78s139.667 30 221 30c141.333 0 253 -32.833 335 -98.5s123 -159.5 123 -281.5v-446c0 -14.667 0.166992 -29.167 0.5 -43.5s1.5 -28.166 3.5 -41.499l113 -16v-175h-362
c-7.33301 18.667 -14.666 38.667 -21.999 60s-12.666 42.666 -15.999 63.999c-34.667 -44 -75.5 -79.167 -122.5 -105.5s-102.167 -39.5 -165.5 -39.5zM502.997 195.001c40.667 0 79.334 9.16602 116.001 27.499s65 42.5 85 72.5v171h-144c-64 0 -112.5 -14.667 -145.5 -44
s-49.5 -64.666 -49.5 -105.999c0 -38.667 12.167 -68.5 36.5 -89.5s58.166 -31.5 101.499 -31.5zM548.997 1228c-66.667 0 -122.5 20 -167.5 60s-67.5 91.333 -67.5 154c0 62 22.667 114 68 156s101 63 167 63c64.667 0 119.167 -21 163.5 -63s66.5 -94 66.5 -156
c0 -62.667 -22.167 -114 -66.5 -154s-98.833 -60 -163.5 -60zM548.997 1345c27.333 0 49.5 9 66.5 27s25.5 41.333 25.5 70c0 29.333 -8.5 53.166 -25.5 71.499s-39.167 27.5 -66.5 27.5c-28 0 -51.167 -9.16699 -69.5 -27.5s-27.5 -42.166 -27.5 -71.499
c0 -28.667 9.16699 -52 27.5 -70s41.5 -27 69.5 -27z" />
    <glyph glyph-name="ae" unicode="&#xe6;" horiz-adv-x="1720" 
d="M448 -21c-118.667 0 -210.67 29.167 -276.003 87.5s-98 137.5 -98 237.5c0 67.333 18.5 126.833 55.5 178.5s91.667 92 164 121s161.5 43.5 267.5 43.5h144v78c0 52 -15.333 94.167 -46 126.5s-76 48.5 -136 48.5c-31.333 0 -59.5 -3.83301 -84.5 -11.5
s-47.833 -18.5 -68.5 -32.5l-22 -143h-211l-3 281c56.667 32 118 58 184 78s139.667 30 221 30c73.333 0 138.333 -11.333 195 -34s102.667 -57.334 138 -104.001c28.667 30.667 59.5 56.167 92.5 76.5s68.833 35.666 107.5 45.999s79.334 15.5 122.001 15.5
c94.667 0 175.834 -19.833 243.501 -59.5s119.667 -96.167 156 -169.5s54.5 -160.333 54.5 -261v-158h-650l-2 -6c2.66699 -74 25 -133.333 67 -178s105 -67 189 -67c59.333 0 109.5 6.83301 150.5 20.5s87.5 33.834 139.5 60.501l77 -184
c-41.333 -32 -97.666 -60.167 -168.999 -84.5s-149 -36.5 -233 -36.5c-167.333 0 -297.333 55 -390 165c-48 -53.333 -103 -94.166 -165 -122.499s-133.333 -42.5 -214 -42.5zM503.997 195c28.667 0 57.001 5.16699 85.001 15.5s53.667 24.5 77 42.5s42.333 38.667 57 62
c-6.66699 26 -11.334 51 -14.001 75s-4 47.667 -4 71v7h-144c-64 0 -112.667 -14.5 -146 -43.5s-50 -64.167 -50 -105.5c0 -36.667 12.167 -66.5 36.5 -89.5s58.5 -34.5 102.5 -34.5zM998.998 644h363v28c0 62.667 -15 112.5 -45 149.5s-73.667 55.5 -131 55.5
c-36.667 0 -68.5 -9.33301 -95.5 -28s-48.5 -45 -64.5 -79s-25.667 -74.333 -29 -121z" />
    <glyph glyph-name="ccedilla" unicode="&#xe7;" horiz-adv-x="1082" 
d="M572 -21c-104 0 -193.829 23.334 -269.496 70.001s-133.834 111.167 -174.501 193.5s-61 176.5 -61 282.5v30c0 106.667 20.667 201 62 283s99.666 146.5 174.999 193.5s164 70.5 266 70.5c97.333 0 181.166 -15.167 251.499 -45.5s127.5 -65.5 171.5 -105.5l-2 -310
h-220l-39 193c-16 16 -36.333 29 -61 39s-49.667 15 -75 15c-53.333 0 -97.5 -13.333 -132.5 -40s-61.167 -64.667 -78.5 -114s-26 -109 -26 -179v-30c0 -74 9.66699 -134.833 29 -182.5s45.166 -82.834 77.499 -105.501s68.5 -34 108.5 -34c51.333 0 92.5 13.5 123.5 40.5
s52.5 65.167 64.5 114.5h249l3 -6c-11.333 -76.667 -33.833 -143 -67.5 -199s-81 -99 -142 -129s-138.5 -45 -232.5 -45zM436.004 -458.999l-7 159.999c40 0 71.833 6.5 95.5 19.5s35.5 32.833 35.5 59.5c0 28.667 -11.667 48.5 -35 59.5s-60.333 17.833 -111 20.5l34 158
h215l-13 -74c44.667 -7.33301 82 -24.166 112 -50.499s45 -65.5 45 -117.5c0 -71.333 -32.333 -128.333 -97 -171s-156 -64 -274 -64z" />
    <glyph glyph-name="egrave" unicode="&#xe8;" horiz-adv-x="1078" 
d="M581 -21c-103.333 0 -193.667 22.833 -271 68.5s-137.166 108.5 -179.499 188.5s-63.5 171.333 -63.5 274v40c0 107.333 20 202.5 60 285.5s96.5 148.333 169.5 196s159.167 71.167 258.5 70.5c98 0 180.333 -19.333 247 -58s117.334 -94.334 152.001 -167.001
s52 -160.667 52 -264v-159h-636l-2 -6c4 -47.333 15.833 -89.5 35.5 -126.5s47.5 -66 83.5 -87s79.667 -31.5 131 -31.5c53.333 0 103.166 6.83301 149.499 20.5s91.5 33.834 135.5 60.501l79 -180c-44.667 -36 -100.834 -65.833 -168.501 -89.5
s-145.167 -35.5 -232.5 -35.5zM371.999 647l361.003 -0.000976562v26c0 44 -5.83301 81.833 -17.5 113.5s-30.334 56.167 -56.001 73.5s-58.834 26 -99.501 26c-38.667 0 -71.334 -10.167 -98.001 -30.5s-47.5 -48.166 -62.5 -83.499s-25.167 -75.333 -30.5 -120z
M724.002 1287h-8h-226l-276 267l2 6h309z" />
    <glyph glyph-name="eacute" unicode="&#xe9;" horiz-adv-x="1078" 
d="M581 -21c-103.333 0 -193.667 22.833 -271 68.5s-137.166 108.5 -179.499 188.5s-63.5 171.333 -63.5 274v40c0 107.333 20 202.5 60 285.5s96.5 148.333 169.5 196s159.167 71.167 258.5 70.5c98 0 180.333 -19.333 247 -58s117.334 -94.334 152.001 -167.001
s52 -160.667 52 -264v-159h-636l-2 -6c4 -47.333 15.833 -89.5 35.5 -126.5s47.5 -66 83.5 -87s79.667 -31.5 131 -31.5c53.333 0 103.166 6.83301 149.499 20.5s91.5 33.834 135.5 60.501l79 -180c-44.667 -36 -100.834 -65.833 -168.501 -89.5
s-145.167 -35.5 -232.5 -35.5zM371.999 647l361.003 -0.000976562v26c0 44 -5.83301 81.833 -17.5 113.5s-30.334 56.167 -56.001 73.5s-58.834 26 -99.501 26c-38.667 0 -71.334 -10.167 -98.001 -30.5s-47.5 -48.166 -62.5 -83.499s-25.167 -75.333 -30.5 -120z
M375.002 1287l199 273h309l2 -6l-276 -267h-226h-8z" />
    <glyph glyph-name="ecircumflex" unicode="&#xea;" horiz-adv-x="1078" 
d="M581 -21c-103.333 0 -193.667 22.833 -271 68.5s-137.166 108.5 -179.499 188.5s-63.5 171.333 -63.5 274v40c0 107.333 20 202.5 60 285.5s96.5 148.333 169.5 196s159.167 71.167 258.5 70.5c98 0 180.333 -19.333 247 -58s117.334 -94.334 152.001 -167.001
s52 -160.667 52 -264v-159h-636l-2 -6c4 -47.333 15.833 -89.5 35.5 -126.5s47.5 -66 83.5 -87s79.667 -31.5 131 -31.5c53.333 0 103.166 6.83301 149.499 20.5s91.5 33.834 135.5 60.501l79 -180c-44.667 -36 -100.834 -65.833 -168.501 -89.5
s-145.167 -35.5 -232.5 -35.5zM371.999 647l361.003 -0.000976562v26c0 44 -5.83301 81.833 -17.5 113.5s-30.334 56.167 -56.001 73.5s-58.834 26 -99.501 26c-38.667 0 -71.334 -10.167 -98.001 -30.5s-47.5 -48.166 -62.5 -83.499s-25.167 -75.333 -30.5 -120z
M188.002 1291v26l255 243h215l253 -246v-23h-228l-133 144l-137 -144h-225z" />
    <glyph glyph-name="edieresis" unicode="&#xeb;" horiz-adv-x="1078" 
d="M581 -21c-103.333 0 -193.667 22.833 -271 68.5s-137.166 108.5 -179.499 188.5s-63.5 171.333 -63.5 274v40c0 107.333 20 202.5 60 285.5s96.5 148.333 169.5 196s159.167 71.167 258.5 70.5c98 0 180.333 -19.333 247 -58s117.334 -94.334 152.001 -167.001
s52 -160.667 52 -264v-159h-636l-2 -6c4 -47.333 15.833 -89.5 35.5 -126.5s47.5 -66 83.5 -87s79.667 -31.5 131 -31.5c53.333 0 103.166 6.83301 149.499 20.5s91.5 33.834 135.5 60.501l79 -180c-44.667 -36 -100.834 -65.833 -168.501 -89.5
s-145.167 -35.5 -232.5 -35.5zM371.999 647l361.003 -0.000976562v26c0 44 -5.83301 81.833 -17.5 113.5s-30.334 56.167 -56.001 73.5s-58.834 26 -99.501 26c-38.667 0 -71.334 -10.167 -98.001 -30.5s-47.5 -48.166 -62.5 -83.499s-25.167 -75.333 -30.5 -120z
M634.002 1311v249h281v-249h-281zM183.002 1311v249h281v-249h-281z" />
    <glyph glyph-name="igrave" unicode="&#xec;" horiz-adv-x="661" 
d="M54 0v175l141 30v671l-156 30v176h448v-877l140 -30v-175h-573zM511 1287h-8h-226l-276 267l2 6h309z" />
    <glyph glyph-name="iacute" unicode="&#xed;" horiz-adv-x="661" 
d="M54 0v175l141 30v671l-156 30v176h448v-877l140 -30v-175h-573zM162 1287l199 273h309l2 -6l-276 -267h-226h-8z" />
    <glyph glyph-name="icircumflex" unicode="&#xee;" horiz-adv-x="661" 
d="M54 0v175l141 30v671l-156 30v176h448v-877l140 -30v-175h-573zM-26 1291v26l255 243h215l253 -246v-23h-228l-133 144l-137 -144h-225z" />
    <glyph glyph-name="idieresis" unicode="&#xef;" horiz-adv-x="661" 
d="M54 0v175l141 30v671l-156 30v176h448v-877l140 -30v-175h-573zM421 1311v249h281v-249h-281zM-30 1311v249h281v-249h-281z" />
    <glyph glyph-name="eth" unicode="&#xf0;" horiz-adv-x="1217" 
d="M598 -21c-106 0 -199.502 21.668 -280.502 65.001s-144.167 102.5 -189.5 177.5s-68 160.167 -68 255.5c0 98 20.167 183.667 60.5 257s97.5 130.5 171.5 171.5s161.333 61.5 262 61.5c52.667 0 101.834 -7.33301 147.501 -22s85.167 -35 118.5 -61l4 4
c-13.333 50 -33 96.667 -59 140s-56.667 82.666 -92 117.999l-231 -128l-78 113l190 105c-23.333 13.333 -47.166 25 -71.499 35s-48.833 19.333 -73.5 28l92 218c57.333 -14 111.833 -32.667 163.5 -56s100.167 -51.333 145.5 -84l208 116l77 -113l-177 -98
c73.333 -78 130 -169.5 170 -274.5s60 -220.5 60 -346.5v-76c0 -118.667 -24.167 -223.5 -72.5 -314.5s-114 -162.333 -197 -214s-176.5 -77.5 -280.5 -77.5zM595.998 203.001c54 0 100.498 16.332 139.498 48.999s68.833 77.667 89.5 135s31 123.333 31 198v47v31
c-22.667 26.667 -55.5 48.667 -98.5 66s-92.833 26 -149.5 26c-54.667 0 -101.167 -11.833 -139.5 -35.5s-67.5 -56.5 -87.5 -98.5s-30 -90.667 -30 -146c0 -51.333 10.333 -97.666 31 -138.999s49.334 -73.833 86.001 -97.5s79.334 -35.5 128.001 -35.5z" />
    <glyph glyph-name="ntilde" unicode="&#xf1;" horiz-adv-x="1307" 
d="M52 0l0.000976562 175.002l140 30v671l-155 30v176h427l13 -155c36 55.333 80.5 98.333 133.5 129s113.5 46 181.5 46c107.333 0 191.333 -34.333 252 -103s91 -176.334 91 -323.001v-471l140 -30v-175h-558v175l125 30v470c0 72.667 -14.333 124.167 -43 154.5
s-71.334 45.5 -128.001 45.5c-42 0 -78.5 -8.83301 -109.5 -26.5s-56.833 -42.834 -77.5 -75.501v-568l118 -30v-175h-550zM432.001 1283l-151 40.001c0 44.667 10.5 86 31.5 124s48.833 68.667 83.5 92s72.334 35 113.001 35c32 0 65.333 -8 100 -24
s67.834 -32.167 99.501 -48.5s58.5 -24.5 80.5 -24.5c27.333 0.666992 49.166 11.167 65.499 31.5s24.5 46.166 24.5 77.499l151 -42c0 -46 -10.5 -87.833 -31.5 -125.5s-48.833 -67.667 -83.5 -90s-72.667 -33.5 -114 -33.5c-34.667 0 -69.334 8 -104.001 24
s-67 32.167 -97 48.5s-56.333 24.5 -79 24.5c-27.333 0 -49 -10.667 -65 -32s-24 -47 -24 -77z" />
    <glyph glyph-name="ograve" unicode="&#xf2;" horiz-adv-x="1155" 
d="M579 -21c-106.667 0 -198.332 23.333 -274.999 70s-135.334 111.5 -176.001 194.5s-61 178.5 -61 286.5v21c0 107.333 20.333 202.5 61 285.5s99.167 148 175.5 195s167.5 70.5 273.5 70.5c107.333 0 199 -23.5 275 -70.5s134.333 -111.833 175 -194.5s61 -178 61 -286
v-21c0 -108 -20.333 -203.5 -61 -286.5s-99 -147.833 -175 -194.5s-167 -70 -273 -70zM579.002 203c50.667 0 91.998 13.666 123.998 40.999s55.667 65.5 71 114.5s23 106.167 23 171.5v21c0 64 -7.66699 120.5 -23 169.5s-39.166 87.333 -71.499 115
s-74.166 41.5 -125.499 41.5c-50 0 -91.333 -13.833 -124 -41.5s-56.5 -66 -71.5 -115s-22.5 -105.5 -22.5 -169.5v-21c0 -65.333 7.5 -122.666 22.5 -171.999s38.833 -87.5 71.5 -114.5s74.667 -40.5 126 -40.5zM753 1287h-8h-226l-276 267l2 6h309z" />
    <glyph glyph-name="oacute" unicode="&#xf3;" horiz-adv-x="1155" 
d="M579 -21c-106.667 0 -198.332 23.333 -274.999 70s-135.334 111.5 -176.001 194.5s-61 178.5 -61 286.5v21c0 107.333 20.333 202.5 61 285.5s99.167 148 175.5 195s167.5 70.5 273.5 70.5c107.333 0 199 -23.5 275 -70.5s134.333 -111.833 175 -194.5s61 -178 61 -286
v-21c0 -108 -20.333 -203.5 -61 -286.5s-99 -147.833 -175 -194.5s-167 -70 -273 -70zM579.002 203c50.667 0 91.998 13.666 123.998 40.999s55.667 65.5 71 114.5s23 106.167 23 171.5v21c0 64 -7.66699 120.5 -23 169.5s-39.166 87.333 -71.499 115
s-74.166 41.5 -125.499 41.5c-50 0 -91.333 -13.833 -124 -41.5s-56.5 -66 -71.5 -115s-22.5 -105.5 -22.5 -169.5v-21c0 -65.333 7.5 -122.666 22.5 -171.999s38.833 -87.5 71.5 -114.5s74.667 -40.5 126 -40.5zM403 1287l199 273h309l2 -6l-276 -267h-226h-8z" />
    <glyph glyph-name="ocircumflex" unicode="&#xf4;" horiz-adv-x="1155" 
d="M579 -21c-106.667 0 -198.332 23.333 -274.999 70s-135.334 111.5 -176.001 194.5s-61 178.5 -61 286.5v21c0 107.333 20.333 202.5 61 285.5s99.167 148 175.5 195s167.5 70.5 273.5 70.5c107.333 0 199 -23.5 275 -70.5s134.333 -111.833 175 -194.5s61 -178 61 -286
v-21c0 -108 -20.333 -203.5 -61 -286.5s-99 -147.833 -175 -194.5s-167 -70 -273 -70zM579.002 203c50.667 0 91.998 13.666 123.998 40.999s55.667 65.5 71 114.5s23 106.167 23 171.5v21c0 64 -7.66699 120.5 -23 169.5s-39.166 87.333 -71.499 115
s-74.166 41.5 -125.499 41.5c-50 0 -91.333 -13.833 -124 -41.5s-56.5 -66 -71.5 -115s-22.5 -105.5 -22.5 -169.5v-21c0 -65.333 7.5 -122.666 22.5 -171.999s38.833 -87.5 71.5 -114.5s74.667 -40.5 126 -40.5zM216 1291v26l255 243h215l253 -246v-23h-228l-133 144
l-137 -144h-225z" />
    <glyph glyph-name="otilde" unicode="&#xf5;" horiz-adv-x="1155" 
d="M579 -21c-106.667 0 -198.332 23.333 -274.999 70s-135.334 111.5 -176.001 194.5s-61 178.5 -61 286.5v21c0 107.333 20.333 202.5 61 285.5s99.167 148 175.5 195s167.5 70.5 273.5 70.5c107.333 0 199 -23.5 275 -70.5s134.333 -111.833 175 -194.5s61 -178 61 -286
v-21c0 -108 -20.333 -203.5 -61 -286.5s-99 -147.833 -175 -194.5s-167 -70 -273 -70zM579.002 203c50.667 0 91.998 13.666 123.998 40.999s55.667 65.5 71 114.5s23 106.167 23 171.5v21c0 64 -7.66699 120.5 -23 169.5s-39.166 87.333 -71.499 115
s-74.166 41.5 -125.499 41.5c-50 0 -91.333 -13.833 -124 -41.5s-56.5 -66 -71.5 -115s-22.5 -105.5 -22.5 -169.5v-21c0 -65.333 7.5 -122.666 22.5 -171.999s38.833 -87.5 71.5 -114.5s74.667 -40.5 126 -40.5zM354 1283l-151 40.001c0 44.667 10.5 86 31.5 124
s48.833 68.667 83.5 92s72.334 35 113.001 35c32 0 65.333 -8 100 -24s67.834 -32.167 99.501 -48.5s58.5 -24.5 80.5 -24.5c27.333 0.666992 49.166 11.167 65.499 31.5s24.5 46.166 24.5 77.499l151 -42c0 -46 -10.5 -87.833 -31.5 -125.5s-48.833 -67.667 -83.5 -90
s-72.667 -33.5 -114 -33.5c-34.667 0 -69.334 8 -104.001 24s-67 32.167 -97 48.5s-56.333 24.5 -79 24.5c-27.333 0 -49 -10.667 -65 -32s-24 -47 -24 -77z" />
    <glyph glyph-name="odieresis" unicode="&#xf6;" horiz-adv-x="1155" 
d="M579 -21c-106.667 0 -198.332 23.333 -274.999 70s-135.334 111.5 -176.001 194.5s-61 178.5 -61 286.5v21c0 107.333 20.333 202.5 61 285.5s99.167 148 175.5 195s167.5 70.5 273.5 70.5c107.333 0 199 -23.5 275 -70.5s134.333 -111.833 175 -194.5s61 -178 61 -286
v-21c0 -108 -20.333 -203.5 -61 -286.5s-99 -147.833 -175 -194.5s-167 -70 -273 -70zM579.002 203c50.667 0 91.998 13.666 123.998 40.999s55.667 65.5 71 114.5s23 106.167 23 171.5v21c0 64 -7.66699 120.5 -23 169.5s-39.166 87.333 -71.499 115
s-74.166 41.5 -125.499 41.5c-50 0 -91.333 -13.833 -124 -41.5s-56.5 -66 -71.5 -115s-22.5 -105.5 -22.5 -169.5v-21c0 -65.333 7.5 -122.666 22.5 -171.999s38.833 -87.5 71.5 -114.5s74.667 -40.5 126 -40.5zM663 1311v249h281v-249h-281zM212 1311v249h281v-249h-281z
" />
    <glyph glyph-name="divide" unicode="&#xf7;" horiz-adv-x="1133" 
d="M56 573v227h1028v-227h-1028zM425 164v233h292v-233h-292zM425 973v233h292v-233h-292z" />
    <glyph glyph-name="oslash" unicode="&#xf8;" horiz-adv-x="1155" 
d="M579 -21c-106.667 0 -198.332 23.333 -274.999 70s-135.334 111.5 -176.001 194.5s-61 178.5 -61 286.5v21c0 107.333 20.333 202.5 61 285.5s99.167 148 175.5 195s167.5 70.5 273.5 70.5c107.333 0 199 -23.5 275 -70.5s134.333 -111.833 175 -194.5s61 -178 61 -286
v-21c0 -108 -20.333 -203.5 -61 -286.5s-99 -147.833 -175 -194.5s-167 -70 -273 -70zM579.002 203c50.667 0 91.998 13.666 123.998 40.999s55.667 65.5 71 114.5s23 106.167 23 171.5v21c0 64 -7.66699 120.5 -23 169.5s-39.166 87.333 -71.499 115
s-74.166 41.5 -125.499 41.5c-50 0 -91.333 -13.833 -124 -41.5s-56.5 -66 -71.5 -115s-22.5 -105.5 -22.5 -169.5v-21c0 -65.333 7.5 -122.666 22.5 -171.999s38.833 -87.5 71.5 -114.5s74.667 -40.5 126 -40.5zM165 -137.001l663 1356h162l-663 -1356h-162z" />
    <glyph glyph-name="ugrave" unicode="&#xf9;" horiz-adv-x="1275" 
d="M522 -21c-114 0 -203.498 36.167 -268.498 108.5s-97.5 184.833 -97.5 337.5v451l-119 30v176h119h292v-659c0 -77.333 13.5 -132.833 40.5 -166.5s67.833 -50.5 122.5 -50.5c43.333 0 81.666 8.5 114.999 25.5s60.666 41.167 81.999 72.5v572l-129 30v176h129h292v-877
l130 -30v-175h-386l-20 137c-34 -50.667 -76.667 -89.667 -128 -117s-109.333 -41 -174 -41zM804.002 1287h-8h-226l-276 267l2 6h309z" />
    <glyph glyph-name="uacute" unicode="&#xfa;" horiz-adv-x="1275" 
d="M522 -21c-114 0 -203.498 36.167 -268.498 108.5s-97.5 184.833 -97.5 337.5v451l-119 30v176h119h292v-659c0 -77.333 13.5 -132.833 40.5 -166.5s67.833 -50.5 122.5 -50.5c43.333 0 81.666 8.5 114.999 25.5s60.666 41.167 81.999 72.5v572l-129 30v176h129h292v-877
l130 -30v-175h-386l-20 137c-34 -50.667 -76.667 -89.667 -128 -117s-109.333 -41 -174 -41zM455.002 1287l199 273h309l2 -6l-276 -267h-226h-8z" />
    <glyph glyph-name="ucircumflex" unicode="&#xfb;" horiz-adv-x="1275" 
d="M522 -21c-114 0 -203.498 36.167 -268.498 108.5s-97.5 184.833 -97.5 337.5v451l-119 30v176h119h292v-659c0 -77.333 13.5 -132.833 40.5 -166.5s67.833 -50.5 122.5 -50.5c43.333 0 81.666 8.5 114.999 25.5s60.666 41.167 81.999 72.5v572l-129 30v176h129h292v-877
l130 -30v-175h-386l-20 137c-34 -50.667 -76.667 -89.667 -128 -117s-109.333 -41 -174 -41zM268.002 1291v26l255 243h215l253 -246v-23h-228l-133 144l-137 -144h-225z" />
    <glyph glyph-name="udieresis" unicode="&#xfc;" horiz-adv-x="1275" 
d="M522 -21c-114 0 -203.498 36.167 -268.498 108.5s-97.5 184.833 -97.5 337.5v451l-119 30v176h119h292v-659c0 -77.333 13.5 -132.833 40.5 -166.5s67.833 -50.5 122.5 -50.5c43.333 0 81.666 8.5 114.999 25.5s60.666 41.167 81.999 72.5v572l-129 30v176h129h292v-877
l130 -30v-175h-386l-20 137c-34 -50.667 -76.667 -89.667 -128 -117s-109.333 -41 -174 -41zM714.002 1311v249h281v-249h-281zM263.002 1311v249h281v-249h-281z" />
    <glyph glyph-name="yacute" unicode="&#xfd;" horiz-adv-x="1285" 
d="M363 -437c-25.333 0 -52.167 2.16797 -80.5 6.50098s-55.166 10.166 -80.499 17.499l33 214c12.667 -2.66699 26.667 -4.66699 42 -6s28.666 -2 39.999 -2c42 0 78.333 11 109 33s53 53.667 67 95l24 67l-362 899l-133 19v176h574v-176l-132 -20l170 -477l21 -59h6
l201 538l-129 18v176h535v-176l-122 -17l-413 -1050c-20 -50 -45.5 -95.833 -76.5 -137.5s-70.333 -75.167 -118 -100.5s-106.167 -38 -175.5 -38zM471.999 1287l199 273h309l2 -6l-276 -267h-226h-8z" />
    <glyph glyph-name="thorn" unicode="&#xfe;" horiz-adv-x="1233" 
d="M49 -416l-0.000976562 176.001l141 30v1564l-156 30v176h447v-591c31.333 42.667 69 75.5 113 98.5s96.333 34.5 157 34.5c86.667 0 161 -23.833 223 -71.5s109.5 -114.167 142.5 -199.5s49.5 -185 49.5 -299v-21c0 -106.667 -16.667 -199.834 -50 -279.501
s-81 -141.667 -143 -186s-136.667 -66.5 -224 -66.5c-58.667 0 -110.167 10.5 -154.5 31.5s-82.166 51.833 -113.499 92.5v-313l141 -30v-176h-573zM659.999 203.001c75.333 0 129.832 27.667 163.499 83s50.5 130.333 50.5 225v21c0 68 -7.66699 127.667 -23 179
s-39 91.5 -71 120.5s-72.667 43.5 -122 43.5c-39.333 0 -74.166 -9 -104.499 -27s-54.5 -43.667 -72.5 -77v-474c18 -30.667 42.167 -54 72.5 -70s65.833 -24 106.5 -24z" />
    <glyph glyph-name="ydieresis" unicode="&#xff;" horiz-adv-x="1285" 
d="M363 -437c-25.333 0 -52.167 2.16797 -80.5 6.50098s-55.166 10.166 -80.499 17.499l33 214c12.667 -2.66699 26.667 -4.66699 42 -6s28.666 -2 39.999 -2c42 0 78.333 11 109 33s53 53.667 67 95l24 67l-362 899l-133 19v176h574v-176l-132 -20l170 -477l21 -59h6
l201 538l-129 18v176h535v-176l-122 -17l-413 -1050c-20 -50 -45.5 -95.833 -76.5 -137.5s-70.333 -75.167 -118 -100.5s-106.167 -38 -175.5 -38zM730.999 1311v249h281v-249h-281zM279.999 1311v249h281v-249h-281z" />
    <glyph glyph-name="Amacron" unicode="&#x100;" horiz-adv-x="1512" 
d="M41 0v175l104 15l463 1266h299l460 -1266l104 -15v-175h-496v175l101 18l-64 200h-512l-64 -200l101 -18v-175h-496zM569 608h374l-170 499l-14 44h-6l-15 -47zM392 1594v176h731v-176h-731z" />
    <glyph glyph-name="amacron" unicode="&#x101;" horiz-adv-x="1154" 
d="M425 -21c-107.333 0 -192.669 28.834 -256.002 86.501s-95 136.167 -95 235.5c0 68 18.5 127.667 55.5 179s91.667 91.666 164 120.999s161.5 44 267.5 44h143v80c0 52 -15.167 94.167 -45.5 126.5s-75.833 48.5 -136.5 48.5c-31.333 0 -59.5 -3.83301 -84.5 -11.5
s-47.5 -18.5 -67.5 -32.5l-23 -143h-210l-4 281c56.667 32 118 58 184 78s139.667 30 221 30c141.333 0 253 -32.833 335 -98.5s123 -159.5 123 -281.5v-446c0 -14.667 0.166992 -29.167 0.5 -43.5s1.5 -28.166 3.5 -41.499l113 -16v-175h-362
c-7.33301 18.667 -14.666 38.667 -21.999 60s-12.666 42.666 -15.999 63.999c-34.667 -44 -75.5 -79.167 -122.5 -105.5s-102.167 -39.5 -165.5 -39.5zM502.997 195.001c40.667 0 79.334 9.16602 116.001 27.499s65 42.5 85 72.5v171h-144c-64 0 -112.5 -14.667 -145.5 -44
s-49.5 -64.666 -49.5 -105.999c0 -38.667 12.167 -68.5 36.5 -89.5s58.166 -31.5 101.499 -31.5zM180.997 1312v176h731v-176h-731z" />
    <glyph glyph-name="Abreve" unicode="&#x102;" horiz-adv-x="1512" 
d="M41 0v175l104 15l463 1266h299l460 -1266l104 -15v-175h-496v175l101 18l-64 200h-512l-64 -200l101 -18v-175h-496zM569 608h374l-170 499l-14 44h-6l-15 -47zM758 1545c-107.333 0 -192.668 27.167 -256.001 81.5s-93.666 124.166 -90.999 209.499l2 6h198
c0 -38.667 11.833 -70.667 35.5 -96s60.834 -38 111.501 -38c50 0 86.667 12.333 110 37s35 57 35 97h200l2 -6c1.33301 -85.333 -29.334 -155.166 -92.001 -209.499s-147.667 -81.5 -255 -81.5z" />
    <glyph glyph-name="abreve" unicode="&#x103;" horiz-adv-x="1154" 
d="M425 -21c-107.333 0 -192.669 28.834 -256.002 86.501s-95 136.167 -95 235.5c0 68 18.5 127.667 55.5 179s91.667 91.666 164 120.999s161.5 44 267.5 44h143v80c0 52 -15.167 94.167 -45.5 126.5s-75.833 48.5 -136.5 48.5c-31.333 0 -59.5 -3.83301 -84.5 -11.5
s-47.5 -18.5 -67.5 -32.5l-23 -143h-210l-4 281c56.667 32 118 58 184 78s139.667 30 221 30c141.333 0 253 -32.833 335 -98.5s123 -159.5 123 -281.5v-446c0 -14.667 0.166992 -29.167 0.5 -43.5s1.5 -28.166 3.5 -41.499l113 -16v-175h-362
c-7.33301 18.667 -14.666 38.667 -21.999 60s-12.666 42.666 -15.999 63.999c-34.667 -44 -75.5 -79.167 -122.5 -105.5s-102.167 -39.5 -165.5 -39.5zM502.997 195.001c40.667 0 79.334 9.16602 116.001 27.499s65 42.5 85 72.5v171h-144c-64 0 -112.5 -14.667 -145.5 -44
s-49.5 -64.666 -49.5 -105.999c0 -38.667 12.167 -68.5 36.5 -89.5s58.166 -31.5 101.499 -31.5zM546.997 1263c-107.333 0 -192.668 27.167 -256.001 81.5s-93.666 124.166 -90.999 209.499l2 6h198c0 -38.667 11.833 -70.667 35.5 -96s60.834 -38 111.501 -38
c50 0 86.667 12.333 110 37s35 57 35 97h200l2 -6c1.33301 -85.333 -29.334 -155.166 -92.001 -209.499s-147.667 -81.5 -255 -81.5z" />
    <glyph glyph-name="Aogonek" unicode="&#x104;" horiz-adv-x="1512" 
d="M41 0v175l104 15l463 1266h299l460 -1266l104 -15v-175h-496v175l101 18l-64 200h-512l-64 -200l101 -18v-175h-496zM569 608h374l-170 499l-14 44h-6l-15 -47zM1367 -424c-75.333 0 -136.5 19.167 -183.5 57.5s-70.5 91.833 -70.5 160.5c0 50 17.833 98.833 53.5 146.5
s95.5 87.5 179.5 119.5l125 -60c-48.667 -30 -84 -58.333 -106 -85s-33 -55 -33 -85c0 -25.333 7 -44.333 21 -57s36 -19 66 -19c16 0 30.667 1.5 44 4.5s26.666 6.83301 39.999 11.5l35 -154c-23.333 -11.333 -48.666 -20.833 -75.999 -28.5s-59 -11.5 -95 -11.5z" />
    <glyph glyph-name="aogonek" unicode="&#x105;" horiz-adv-x="1154" 
d="M425 -21c-107.333 0 -192.669 28.834 -256.002 86.501s-95 136.167 -95 235.5c0 68 18.5 127.667 55.5 179s91.667 91.666 164 120.999s161.5 44 267.5 44h143v80c0 52 -15.167 94.167 -45.5 126.5s-75.833 48.5 -136.5 48.5c-31.333 0 -59.5 -3.83301 -84.5 -11.5
s-47.5 -18.5 -67.5 -32.5l-23 -143h-210l-4 281c56.667 32 118 58 184 78s139.667 30 221 30c141.333 0 253 -32.833 335 -98.5s123 -159.5 123 -281.5v-446c0 -14.667 0.166992 -29.167 0.5 -43.5s1.5 -28.166 3.5 -41.499l113 -16v-175h-362
c-7.33301 18.667 -14.666 38.667 -21.999 60s-12.666 42.666 -15.999 63.999c-34.667 -44 -75.5 -79.167 -122.5 -105.5s-102.167 -39.5 -165.5 -39.5zM502.997 195.001c40.667 0 79.334 9.16602 116.001 27.499s65 42.5 85 72.5v171h-144c-64 0 -112.5 -14.667 -145.5 -44
s-49.5 -64.666 -49.5 -105.999c0 -38.667 12.167 -68.5 36.5 -89.5s58.166 -31.5 101.499 -31.5zM1009 -424c-75.333 0 -136.5 19.167 -183.5 57.5s-70.5 91.833 -70.5 160.5c0 50 17.833 98.833 53.5 146.5s95.5 87.5 179.5 119.5l125 -60
c-48.667 -30 -84 -58.333 -106 -85s-33 -55 -33 -85c0 -25.333 7 -44.333 21 -57s36 -19 66 -19c16 0 30.667 1.5 44 4.5s26.666 6.83301 39.999 11.5l35 -154c-23.333 -11.333 -48.666 -20.833 -75.999 -28.5s-59 -11.5 -95 -11.5z" />
    <glyph glyph-name="Cacute" unicode="&#x106;" horiz-adv-x="1321" 
d="M749 -21c-141.333 0 -264.332 29.5 -368.999 88.5s-185.5 142.667 -242.5 251s-85.5 236.5 -85.5 384.5v49c0 141.333 27.5 266.5 82.5 375.5s133.5 194.5 235.5 256.5s223.333 93 364 93c98.667 0 191.167 -14 277.5 -42s163.5 -70.667 231.5 -128v-352h-217l-30 221
c-22 16 -46 29.667 -72 41s-54.167 20 -84.5 26s-63.166 9 -98.499 9c-82.667 0 -153.667 -20.333 -213 -61s-104.833 -98.167 -136.5 -172.5s-47.5 -162.5 -47.5 -264.5v-51c0 -102 16.667 -190.333 50 -265s80.666 -132.5 141.999 -173.5s134 -61.5 218 -61.5
c42 0 84.167 4.83301 126.5 14.5s80.833 22.167 115.5 37.5l30 205h217v-348c-56.667 -37.333 -127.334 -68.833 -212.001 -94.5s-178.667 -38.5 -282 -38.5zM544.001 1569l199 273h309l2 -6l-276 -267h-226h-8z" />
    <glyph glyph-name="cacute" unicode="&#x107;" horiz-adv-x="1082" 
d="M572 -21c-104 0 -193.829 23.334 -269.496 70.001s-133.834 111.167 -174.501 193.5s-61 176.5 -61 282.5v30c0 106.667 20.667 201 62 283s99.666 146.5 174.999 193.5s164 70.5 266 70.5c97.333 0 181.166 -15.167 251.499 -45.5s127.5 -65.5 171.5 -105.5l-2 -310
h-220l-39 193c-16 16 -36.333 29 -61 39s-49.667 15 -75 15c-53.333 0 -97.5 -13.333 -132.5 -40s-61.167 -64.667 -78.5 -114s-26 -109 -26 -179v-30c0 -74 9.66699 -134.833 29 -182.5s45.166 -82.834 77.499 -105.501s68.5 -34 108.5 -34c51.333 0 92.5 13.5 123.5 40.5
s52.5 65.167 64.5 114.5h249l3 -6c-11.333 -76.667 -33.833 -143 -67.5 -199s-81 -99 -142 -129s-138.5 -45 -232.5 -45zM380.004 1287l199 273h309l2 -6l-276 -267h-226h-8z" />
    <glyph glyph-name="Ccircumflex" unicode="&#x108;" horiz-adv-x="1321" 
d="M749 -21c-141.333 0 -264.332 29.5 -368.999 88.5s-185.5 142.667 -242.5 251s-85.5 236.5 -85.5 384.5v49c0 141.333 27.5 266.5 82.5 375.5s133.5 194.5 235.5 256.5s223.333 93 364 93c98.667 0 191.167 -14 277.5 -42s163.5 -70.667 231.5 -128v-352h-217l-30 221
c-22 16 -46 29.667 -72 41s-54.167 20 -84.5 26s-63.166 9 -98.499 9c-82.667 0 -153.667 -20.333 -213 -61s-104.833 -98.167 -136.5 -172.5s-47.5 -162.5 -47.5 -264.5v-51c0 -102 16.667 -190.333 50 -265s80.666 -132.5 141.999 -173.5s134 -61.5 218 -61.5
c42 0 84.167 4.83301 126.5 14.5s80.833 22.167 115.5 37.5l30 205h217v-348c-56.667 -37.333 -127.334 -68.833 -212.001 -94.5s-178.667 -38.5 -282 -38.5zM357.001 1573v26l255 243h215l253 -246v-23h-228l-133 144l-137 -144h-225z" />
    <glyph glyph-name="ccircumflex" unicode="&#x109;" horiz-adv-x="1082" 
d="M572 -21c-104 0 -193.829 23.334 -269.496 70.001s-133.834 111.167 -174.501 193.5s-61 176.5 -61 282.5v30c0 106.667 20.667 201 62 283s99.666 146.5 174.999 193.5s164 70.5 266 70.5c97.333 0 181.166 -15.167 251.499 -45.5s127.5 -65.5 171.5 -105.5l-2 -310
h-220l-39 193c-16 16 -36.333 29 -61 39s-49.667 15 -75 15c-53.333 0 -97.5 -13.333 -132.5 -40s-61.167 -64.667 -78.5 -114s-26 -109 -26 -179v-30c0 -74 9.66699 -134.833 29 -182.5s45.166 -82.834 77.499 -105.501s68.5 -34 108.5 -34c51.333 0 92.5 13.5 123.5 40.5
s52.5 65.167 64.5 114.5h249l3 -6c-11.333 -76.667 -33.833 -143 -67.5 -199s-81 -99 -142 -129s-138.5 -45 -232.5 -45zM193.004 1291v26l255 243h215l253 -246v-23h-228l-133 144l-137 -144h-225z" />
    <glyph glyph-name="Cdotaccent" unicode="&#x10a;" horiz-adv-x="1321" 
d="M749 -21c-141.333 0 -264.332 29.5 -368.999 88.5s-185.5 142.667 -242.5 251s-85.5 236.5 -85.5 384.5v49c0 141.333 27.5 266.5 82.5 375.5s133.5 194.5 235.5 256.5s223.333 93 364 93c98.667 0 191.167 -14 277.5 -42s163.5 -70.667 231.5 -128v-352h-217l-30 221
c-22 16 -46 29.667 -72 41s-54.167 20 -84.5 26s-63.166 9 -98.499 9c-82.667 0 -153.667 -20.333 -213 -61s-104.833 -98.167 -136.5 -172.5s-47.5 -162.5 -47.5 -264.5v-51c0 -102 16.667 -190.333 50 -265s80.666 -132.5 141.999 -173.5s134 -61.5 218 -61.5
c42 0 84.167 4.83301 126.5 14.5s80.833 22.167 115.5 37.5l30 205h217v-348c-56.667 -37.333 -127.334 -68.833 -212.001 -94.5s-178.667 -38.5 -282 -38.5zM567.001 1593v249h302v-249h-302z" />
    <glyph glyph-name="cdotaccent" unicode="&#x10b;" horiz-adv-x="1082" 
d="M572 -21c-104 0 -193.829 23.334 -269.496 70.001s-133.834 111.167 -174.501 193.5s-61 176.5 -61 282.5v30c0 106.667 20.667 201 62 283s99.666 146.5 174.999 193.5s164 70.5 266 70.5c97.333 0 181.166 -15.167 251.499 -45.5s127.5 -65.5 171.5 -105.5l-2 -310
h-220l-39 193c-16 16 -36.333 29 -61 39s-49.667 15 -75 15c-53.333 0 -97.5 -13.333 -132.5 -40s-61.167 -64.667 -78.5 -114s-26 -109 -26 -179v-30c0 -74 9.66699 -134.833 29 -182.5s45.166 -82.834 77.499 -105.501s68.5 -34 108.5 -34c51.333 0 92.5 13.5 123.5 40.5
s52.5 65.167 64.5 114.5h249l3 -6c-11.333 -76.667 -33.833 -143 -67.5 -199s-81 -99 -142 -129s-138.5 -45 -232.5 -45zM403.004 1311v249h302v-249h-302z" />
    <glyph glyph-name="Ccaron" unicode="&#x10c;" horiz-adv-x="1321" 
d="M749 -21c-141.333 0 -264.332 29.5 -368.999 88.5s-185.5 142.667 -242.5 251s-85.5 236.5 -85.5 384.5v49c0 141.333 27.5 266.5 82.5 375.5s133.5 194.5 235.5 256.5s223.333 93 364 93c98.667 0 191.167 -14 277.5 -42s163.5 -70.667 231.5 -128v-352h-217l-30 221
c-22 16 -46 29.667 -72 41s-54.167 20 -84.5 26s-63.166 9 -98.499 9c-82.667 0 -153.667 -20.333 -213 -61s-104.833 -98.167 -136.5 -172.5s-47.5 -162.5 -47.5 -264.5v-51c0 -102 16.667 -190.333 50 -265s80.666 -132.5 141.999 -173.5s134 -61.5 218 -61.5
c42 0 84.167 4.83301 126.5 14.5s80.833 22.167 115.5 37.5l30 205h217v-348c-56.667 -37.333 -127.334 -68.833 -212.001 -94.5s-178.667 -38.5 -282 -38.5zM1080 1842v-26l-254 -243h-216l-253 246v23h228l134 -144l137 144h224z" />
    <glyph glyph-name="ccaron" unicode="&#x10d;" horiz-adv-x="1082" 
d="M572 -21c-104 0 -193.829 23.334 -269.496 70.001s-133.834 111.167 -174.501 193.5s-61 176.5 -61 282.5v30c0 106.667 20.667 201 62 283s99.666 146.5 174.999 193.5s164 70.5 266 70.5c97.333 0 181.166 -15.167 251.499 -45.5s127.5 -65.5 171.5 -105.5l-2 -310
h-220l-39 193c-16 16 -36.333 29 -61 39s-49.667 15 -75 15c-53.333 0 -97.5 -13.333 -132.5 -40s-61.167 -64.667 -78.5 -114s-26 -109 -26 -179v-30c0 -74 9.66699 -134.833 29 -182.5s45.166 -82.834 77.499 -105.501s68.5 -34 108.5 -34c51.333 0 92.5 13.5 123.5 40.5
s52.5 65.167 64.5 114.5h249l3 -6c-11.333 -76.667 -33.833 -143 -67.5 -199s-81 -99 -142 -129s-138.5 -45 -232.5 -45zM916.004 1560v-26l-254 -243h-216l-253 246v23h228l134 -144l137 144h224z" />
    <glyph glyph-name="Dcaron" unicode="&#x10e;" horiz-adv-x="1426" 
d="M56 0v175l157 33v1038l-157 34v176h157h482c130 0 244.667 -30.5 344 -91.5s176.833 -145.333 232.5 -253s83.5 -231.167 83.5 -370.5v-27c0 -138 -27.5 -260.833 -82.5 -368.5s-131.833 -192.167 -230.5 -253.5s-213 -92 -343 -92h-643zM505 223l179 -0.000976562
c80.667 0 149 21.167 205 63.5s98.833 100.5 128.5 174.5s44.5 158.333 44.5 253v28c0 96 -14.833 180.833 -44.5 254.5s-72.5 131.334 -128.5 173.001s-124.333 62.5 -205 62.5h-179v-1009zM1048 1842v-26l-254 -243h-216l-253 246v23h228l134 -144l137 144h224z" />
    <glyph glyph-name="dcaron" unicode="&#x10f;" horiz-adv-x="1213" 
d="M479 -21c-86 0 -159.832 22.166 -221.499 66.499s-108.834 106.333 -141.501 186s-49 172.834 -49 279.501v21c0 114 16.5 213.667 49.5 299s80.167 151.833 141.5 199.5s134.666 71.5 219.999 71.5c59.333 0 111.333 -11.833 156 -35.5s83.334 -57.167 116.001 -100.5
v388l-156 30v176h156h292v-1355l140 -30v-175h-393l-22 132c-34 -50 -74.5 -88 -121.5 -114s-102.5 -39 -166.5 -39zM566.001 205.999c40.667 0 76.332 8.66699 106.999 26s56.334 42.333 77.001 75v459c-20 34.667 -45.333 61.5 -76 80.5s-66 28.5 -106 28.5
c-48.667 0 -88.5 -14.5 -119.5 -43.5s-53.667 -69.167 -68 -120.5s-21.5 -111 -21.5 -179v-21c0 -94.667 16 -169.167 48 -223.5s85 -81.5 159 -81.5zM1238 1156l-135 89.001c21.333 32.667 37.5 65.5 48.5 98.5s16.5 73.833 16.5 122.5v94h246v-81
c0 -63.333 -16.5 -123.333 -49.5 -180s-75.167 -104.334 -126.5 -143.001z" />
    <glyph glyph-name="Dcroat" unicode="&#x110;" horiz-adv-x="1426" 
d="M56 0v175l157 33v1038l-157 34v176h157h482c130 0 244.667 -30.5 344 -91.5s176.833 -145.333 232.5 -253s83.5 -231.167 83.5 -370.5v-27c0 -138 -27.5 -260.833 -82.5 -368.5s-131.833 -192.167 -230.5 -253.5s-213 -92 -343 -92h-643zM505 223l179 -0.000976562
c80.667 0 149 21.167 205 63.5s98.833 100.5 128.5 174.5s44.5 158.333 44.5 253v28c0 96 -14.833 180.833 -44.5 254.5s-72.5 131.334 -128.5 173.001s-124.333 62.5 -205 62.5h-179v-1009zM45 659.999v155h659v-155h-659z" />
    <glyph glyph-name="dcroat" unicode="&#x111;" horiz-adv-x="1212" 
d="M479 -21c-86 0 -159.832 22.166 -221.499 66.499s-108.834 106.333 -141.501 186s-49 172.834 -49 279.501v21c0 114 16.5 213.667 49.5 299s80.167 151.833 141.5 199.5s134.666 71.5 219.999 71.5c59.333 0 111.333 -11.833 156 -35.5s83.334 -57.167 116.001 -100.5
v388l-156 30v176h156h292v-1355l140 -30v-175h-393l-22 132c-34 -50 -74.5 -88 -121.5 -114s-102.5 -39 -166.5 -39zM566.001 205.999c40.667 0 76.332 8.66699 106.999 26s56.334 42.333 77.001 75v459c-20 34.667 -45.333 61.5 -76 80.5s-66 28.5 -106 28.5
c-48.667 0 -88.5 -14.5 -119.5 -43.5s-53.667 -69.167 -68 -120.5s-21.5 -111 -21.5 -179v-21c0 -94.667 16 -169.167 48 -223.5s85 -81.5 159 -81.5zM538.999 1133v155h659v-155h-659z" />
    <glyph glyph-name="Emacron" unicode="&#x112;" horiz-adv-x="1308" 
d="M56 0v175l155 30v1045l-155 30v176h1130v-393h-224l-13 168h-446v-366h493v-225h-493v-416h470l13 174h222v-398h-1152zM288 1594v176h731v-176h-731z" />
    <glyph glyph-name="emacron" unicode="&#x113;" horiz-adv-x="1078" 
d="M581 -21c-103.333 0 -193.667 22.833 -271 68.5s-137.166 108.5 -179.499 188.5s-63.5 171.333 -63.5 274v40c0 107.333 20 202.5 60 285.5s96.5 148.333 169.5 196s159.167 71.167 258.5 70.5c98 0 180.333 -19.333 247 -58s117.334 -94.334 152.001 -167.001
s52 -160.667 52 -264v-159h-636l-2 -6c4 -47.333 15.833 -89.5 35.5 -126.5s47.5 -66 83.5 -87s79.667 -31.5 131 -31.5c53.333 0 103.166 6.83301 149.499 20.5s91.5 33.834 135.5 60.501l79 -180c-44.667 -36 -100.834 -65.833 -168.501 -89.5
s-145.167 -35.5 -232.5 -35.5zM371.999 647l361.003 -0.000976562v26c0 44 -5.83301 81.833 -17.5 113.5s-30.334 56.167 -56.001 73.5s-58.834 26 -99.501 26c-38.667 0 -71.334 -10.167 -98.001 -30.5s-47.5 -48.166 -62.5 -83.499s-25.167 -75.333 -30.5 -120z
M184.002 1312v176h731v-176h-731z" />
    <glyph glyph-name="Ebreve" unicode="&#x114;" horiz-adv-x="1308" 
d="M56 0v175l155 30v1045l-155 30v176h1130v-393h-224l-13 168h-446v-366h493v-225h-493v-416h470l13 174h222v-398h-1152zM654 1545c-107.333 0 -192.668 27.167 -256.001 81.5s-93.666 124.166 -90.999 209.499l2 6h198c0 -38.667 11.833 -70.667 35.5 -96
s60.834 -38 111.501 -38c50 0 86.667 12.333 110 37s35 57 35 97h200l2 -6c1.33301 -85.333 -29.334 -155.166 -92.001 -209.499s-147.667 -81.5 -255 -81.5z" />
    <glyph glyph-name="ebreve" unicode="&#x115;" horiz-adv-x="1078" 
d="M581 -21c-103.333 0 -193.667 22.833 -271 68.5s-137.166 108.5 -179.499 188.5s-63.5 171.333 -63.5 274v40c0 107.333 20 202.5 60 285.5s96.5 148.333 169.5 196s159.167 71.167 258.5 70.5c98 0 180.333 -19.333 247 -58s117.334 -94.334 152.001 -167.001
s52 -160.667 52 -264v-159h-636l-2 -6c4 -47.333 15.833 -89.5 35.5 -126.5s47.5 -66 83.5 -87s79.667 -31.5 131 -31.5c53.333 0 103.166 6.83301 149.499 20.5s91.5 33.834 135.5 60.501l79 -180c-44.667 -36 -100.834 -65.833 -168.501 -89.5
s-145.167 -35.5 -232.5 -35.5zM371.999 647l361.003 -0.000976562v26c0 44 -5.83301 81.833 -17.5 113.5s-30.334 56.167 -56.001 73.5s-58.834 26 -99.501 26c-38.667 0 -71.334 -10.167 -98.001 -30.5s-47.5 -48.166 -62.5 -83.499s-25.167 -75.333 -30.5 -120z
M550.002 1263c-107.333 0 -192.668 27.167 -256.001 81.5s-93.666 124.166 -90.999 209.499l2 6h198c0 -38.667 11.833 -70.667 35.5 -96s60.834 -38 111.501 -38c50 0 86.667 12.333 110 37s35 57 35 97h200l2 -6c1.33301 -85.333 -29.334 -155.166 -92.001 -209.499
s-147.667 -81.5 -255 -81.5z" />
    <glyph glyph-name="Edotaccent" unicode="&#x116;" horiz-adv-x="1308" 
d="M56 0v175l155 30v1045l-155 30v176h1130v-393h-224l-13 168h-446v-366h493v-225h-493v-416h470l13 174h222v-398h-1152zM503 1593v249h302v-249h-302z" />
    <glyph glyph-name="edotaccent" unicode="&#x117;" horiz-adv-x="1078" 
d="M581 -21c-103.333 0 -193.667 22.833 -271 68.5s-137.166 108.5 -179.499 188.5s-63.5 171.333 -63.5 274v40c0 107.333 20 202.5 60 285.5s96.5 148.333 169.5 196s159.167 71.167 258.5 70.5c98 0 180.333 -19.333 247 -58s117.334 -94.334 152.001 -167.001
s52 -160.667 52 -264v-159h-636l-2 -6c4 -47.333 15.833 -89.5 35.5 -126.5s47.5 -66 83.5 -87s79.667 -31.5 131 -31.5c53.333 0 103.166 6.83301 149.499 20.5s91.5 33.834 135.5 60.501l79 -180c-44.667 -36 -100.834 -65.833 -168.501 -89.5
s-145.167 -35.5 -232.5 -35.5zM371.999 647l361.003 -0.000976562v26c0 44 -5.83301 81.833 -17.5 113.5s-30.334 56.167 -56.001 73.5s-58.834 26 -99.501 26c-38.667 0 -71.334 -10.167 -98.001 -30.5s-47.5 -48.166 -62.5 -83.499s-25.167 -75.333 -30.5 -120z
M398.002 1311v249h302v-249h-302z" />
    <glyph glyph-name="Eogonek" unicode="&#x118;" horiz-adv-x="1308" 
d="M56 0v175l155 30v1045l-155 30v176h1130v-393h-224l-13 168h-446v-366h493v-225h-493v-416h470l13 174h222v-398h-1152zM1103 -424c-75.333 0 -136.5 19.167 -183.5 57.5s-70.5 91.833 -70.5 160.5c0 50 17.833 98.833 53.5 146.5s95.5 87.5 179.5 119.5l125 -60
c-48.667 -30 -84 -58.333 -106 -85s-33 -55 -33 -85c0 -25.333 7 -44.333 21 -57s36 -19 66 -19c16 0 30.667 1.5 44 4.5s26.666 6.83301 39.999 11.5l35 -154c-23.333 -11.333 -48.666 -20.833 -75.999 -28.5s-59 -11.5 -95 -11.5z" />
    <glyph glyph-name="eogonek" unicode="&#x119;" horiz-adv-x="1078" 
d="M581 -21c-103.333 0 -193.667 22.833 -271 68.5s-137.166 108.5 -179.499 188.5s-63.5 171.333 -63.5 274v40c0 107.333 20 202.5 60 285.5s96.5 148.333 169.5 196s159.167 71.167 258.5 70.5c98 0 180.333 -19.333 247 -58s117.334 -94.334 152.001 -167.001
s52 -160.667 52 -264v-159h-636l-2 -6c4 -47.333 15.833 -89.5 35.5 -126.5s47.5 -66 83.5 -87s79.667 -31.5 131 -31.5c53.333 0 103.166 6.83301 149.499 20.5s91.5 33.834 135.5 60.501l79 -180c-44.667 -36 -100.834 -65.833 -168.501 -89.5
s-145.167 -35.5 -232.5 -35.5zM371.999 647l361.003 -0.000976562v26c0 44 -5.83301 81.833 -17.5 113.5s-30.334 56.167 -56.001 73.5s-58.834 26 -99.501 26c-38.667 0 -71.334 -10.167 -98.001 -30.5s-47.5 -48.166 -62.5 -83.499s-25.167 -75.333 -30.5 -120z
M779.002 -424.001c-74 0 -134.835 19.834 -182.502 59.501s-71.5 95.167 -71.5 166.5c0 61.333 23.667 119.666 71 174.999s127.333 100.666 240 135.999l59 -62c-52 -32 -90.167 -64.5 -114.5 -97.5s-36.5 -69.5 -36.5 -109.5c0 -31.333 7.33301 -54.166 22 -68.499
s37.667 -21.5 69 -21.5c16.667 0 31.834 1.5 45.501 4.5s26.834 6.83301 39.501 11.5l35 -154c-22.667 -11.333 -48 -20.833 -76 -28.5s-61.333 -11.5 -100 -11.5z" />
    <glyph glyph-name="Ecaron" unicode="&#x11a;" horiz-adv-x="1308" 
d="M56 0v175l155 30v1045l-155 30v176h1130v-393h-224l-13 168h-446v-366h493v-225h-493v-416h470l13 174h222v-398h-1152zM1015 1842v-26l-254 -243h-216l-253 246v23h228l134 -144l137 144h224z" />
    <glyph glyph-name="ecaron" unicode="&#x11b;" horiz-adv-x="1078" 
d="M581 -21c-103.333 0 -193.667 22.833 -271 68.5s-137.166 108.5 -179.499 188.5s-63.5 171.333 -63.5 274v40c0 107.333 20 202.5 60 285.5s96.5 148.333 169.5 196s159.167 71.167 258.5 70.5c98 0 180.333 -19.333 247 -58s117.334 -94.334 152.001 -167.001
s52 -160.667 52 -264v-159h-636l-2 -6c4 -47.333 15.833 -89.5 35.5 -126.5s47.5 -66 83.5 -87s79.667 -31.5 131 -31.5c53.333 0 103.166 6.83301 149.499 20.5s91.5 33.834 135.5 60.501l79 -180c-44.667 -36 -100.834 -65.833 -168.501 -89.5
s-145.167 -35.5 -232.5 -35.5zM371.999 647l361.003 -0.000976562v26c0 44 -5.83301 81.833 -17.5 113.5s-30.334 56.167 -56.001 73.5s-58.834 26 -99.501 26c-38.667 0 -71.334 -10.167 -98.001 -30.5s-47.5 -48.166 -62.5 -83.499s-25.167 -75.333 -30.5 -120z
M911.002 1560v-26l-254 -243h-216l-253 246v23h228l134 -144l137 144h224z" />
    <glyph glyph-name="Gcircumflex" unicode="&#x11c;" horiz-adv-x="1373" 
d="M733 -21c-144.667 0 -268 29.999 -370 89.999s-180.167 143.333 -234.5 250s-81.5 230.334 -81.5 371.001v50c0 145.333 27 273.333 81 384s130.5 197.167 229.5 259.5s216.167 93.5 351.5 93.5c104.667 0 203 -14.333 295 -43s172 -71.667 240 -129v-323h-216l-41 195
c-26 22.667 -61 40.834 -105 54.501s-94.333 20.5 -151 20.5c-81.333 0 -151.5 -21.333 -210.5 -64s-104.167 -102.334 -135.5 -179.001s-47 -165.667 -47 -267v-52c0 -98.667 15.5 -184.5 46.5 -257.5s76.5 -129.5 136.5 -169.5s133.667 -60 221 -60
c51.333 0 98.5 4.83301 141.5 14.5s78.5 21.5 106.5 35.5v247l-208 16v205h501v-589c-64.667 -46 -142.5 -83 -233.5 -111s-196.5 -42 -316.5 -42zM325 1573v26l255 243h215l253 -246v-23h-228l-133 144l-137 -144h-225z" />
    <glyph glyph-name="gcircumflex" unicode="&#x11d;" horiz-adv-x="1198" 
d="M540 -437c-54.667 0 -116.003 7.00098 -184.003 21.001s-128 34 -180 60l54 208c46.667 -20 96.167 -35.833 148.5 -47.5s101.166 -17.5 146.499 -17.5c78 0 135.167 21.667 171.5 65s54.5 103.666 54.5 180.999v71c-32 -40.667 -69.667 -71.667 -113 -93
s-93 -32 -149 -32c-88 0 -163.667 22.167 -227 66.5s-111.666 106.5 -144.999 186.5s-50 173 -50 279v21c0 114 16.667 213.667 50 299s81 151.833 143 199.5s136.333 71.5 223 71.5c64.667 0 120.334 -13.5 167.001 -40.5s86.334 -65.5 119.001 -115.5l21 136h254v-1050
c0 -95.333 -20.167 -178 -60.5 -248s-98.166 -124.333 -173.499 -163s-165.333 -58 -270 -58zM570.997 206.001c41.333 0 77 8.16797 107 24.501s54.333 40.166 73 71.499v470c-18.667 32.667 -43.167 58 -73.5 76s-65.5 27 -105.5 27c-50 0 -90.667 -14.5 -122 -43.5
s-54.333 -69 -69 -120s-22 -110.833 -22 -179.5v-21c0 -94.667 16.333 -169.167 49 -223.5s87 -81.5 163 -81.5zM1007 871.002l-127 211h291v-176zM229.997 1291v26l255 243h215l253 -246v-23h-228l-133 144l-137 -144h-225z" />
    <glyph glyph-name="Gbreve" unicode="&#x11e;" horiz-adv-x="1373" 
d="M733 -21c-144.667 0 -268 29.999 -370 89.999s-180.167 143.333 -234.5 250s-81.5 230.334 -81.5 371.001v50c0 145.333 27 273.333 81 384s130.5 197.167 229.5 259.5s216.167 93.5 351.5 93.5c104.667 0 203 -14.333 295 -43s172 -71.667 240 -129v-323h-216l-41 195
c-26 22.667 -61 40.834 -105 54.501s-94.333 20.5 -151 20.5c-81.333 0 -151.5 -21.333 -210.5 -64s-104.167 -102.334 -135.5 -179.001s-47 -165.667 -47 -267v-52c0 -98.667 15.5 -184.5 46.5 -257.5s76.5 -129.5 136.5 -169.5s133.667 -60 221 -60
c51.333 0 98.5 4.83301 141.5 14.5s78.5 21.5 106.5 35.5v247l-208 16v205h501v-589c-64.667 -46 -142.5 -83 -233.5 -111s-196.5 -42 -316.5 -42zM687 1545c-107.333 0 -192.668 27.167 -256.001 81.5s-93.666 124.166 -90.999 209.499l2 6h198
c0 -38.667 11.833 -70.667 35.5 -96s60.834 -38 111.501 -38c50 0 86.667 12.333 110 37s35 57 35 97h200l2 -6c1.33301 -85.333 -29.334 -155.166 -92.001 -209.499s-147.667 -81.5 -255 -81.5z" />
    <glyph glyph-name="gbreve" unicode="&#x11f;" horiz-adv-x="1198" 
d="M540 -437c-54.667 0 -116.003 7.00098 -184.003 21.001s-128 34 -180 60l54 208c46.667 -20 96.167 -35.833 148.5 -47.5s101.166 -17.5 146.499 -17.5c78 0 135.167 21.667 171.5 65s54.5 103.666 54.5 180.999v71c-32 -40.667 -69.667 -71.667 -113 -93
s-93 -32 -149 -32c-88 0 -163.667 22.167 -227 66.5s-111.666 106.5 -144.999 186.5s-50 173 -50 279v21c0 114 16.667 213.667 50 299s81 151.833 143 199.5s136.333 71.5 223 71.5c64.667 0 120.334 -13.5 167.001 -40.5s86.334 -65.5 119.001 -115.5l21 136h254v-1050
c0 -95.333 -20.167 -178 -60.5 -248s-98.166 -124.333 -173.499 -163s-165.333 -58 -270 -58zM570.997 206.001c41.333 0 77 8.16797 107 24.501s54.333 40.166 73 71.499v470c-18.667 32.667 -43.167 58 -73.5 76s-65.5 27 -105.5 27c-50 0 -90.667 -14.5 -122 -43.5
s-54.333 -69 -69 -120s-22 -110.833 -22 -179.5v-21c0 -94.667 16.333 -169.167 49 -223.5s87 -81.5 163 -81.5zM1007 871.002l-127 211h291v-176zM591.997 1263c-107.333 0 -192.668 27.167 -256.001 81.5s-93.666 124.166 -90.999 209.499l2 6h198
c0 -38.667 11.833 -70.667 35.5 -96s60.834 -38 111.501 -38c50 0 86.667 12.333 110 37s35 57 35 97h200l2 -6c1.33301 -85.333 -29.334 -155.166 -92.001 -209.499s-147.667 -81.5 -255 -81.5z" />
    <glyph glyph-name="Gdotaccent" unicode="&#x120;" horiz-adv-x="1373" 
d="M733 -21c-144.667 0 -268 29.999 -370 89.999s-180.167 143.333 -234.5 250s-81.5 230.334 -81.5 371.001v50c0 145.333 27 273.333 81 384s130.5 197.167 229.5 259.5s216.167 93.5 351.5 93.5c104.667 0 203 -14.333 295 -43s172 -71.667 240 -129v-323h-216l-41 195
c-26 22.667 -61 40.834 -105 54.501s-94.333 20.5 -151 20.5c-81.333 0 -151.5 -21.333 -210.5 -64s-104.167 -102.334 -135.5 -179.001s-47 -165.667 -47 -267v-52c0 -98.667 15.5 -184.5 46.5 -257.5s76.5 -129.5 136.5 -169.5s133.667 -60 221 -60
c51.333 0 98.5 4.83301 141.5 14.5s78.5 21.5 106.5 35.5v247l-208 16v205h501v-589c-64.667 -46 -142.5 -83 -233.5 -111s-196.5 -42 -316.5 -42zM535 1593v249h302v-249h-302z" />
    <glyph glyph-name="gdotaccent" unicode="&#x121;" horiz-adv-x="1198" 
d="M540 -437c-54.667 0 -116.003 7.00098 -184.003 21.001s-128 34 -180 60l54 208c46.667 -20 96.167 -35.833 148.5 -47.5s101.166 -17.5 146.499 -17.5c78 0 135.167 21.667 171.5 65s54.5 103.666 54.5 180.999v71c-32 -40.667 -69.667 -71.667 -113 -93
s-93 -32 -149 -32c-88 0 -163.667 22.167 -227 66.5s-111.666 106.5 -144.999 186.5s-50 173 -50 279v21c0 114 16.667 213.667 50 299s81 151.833 143 199.5s136.333 71.5 223 71.5c64.667 0 120.334 -13.5 167.001 -40.5s86.334 -65.5 119.001 -115.5l21 136h254v-1050
c0 -95.333 -20.167 -178 -60.5 -248s-98.166 -124.333 -173.499 -163s-165.333 -58 -270 -58zM570.997 206.001c41.333 0 77 8.16797 107 24.501s54.333 40.166 73 71.499v470c-18.667 32.667 -43.167 58 -73.5 76s-65.5 27 -105.5 27c-50 0 -90.667 -14.5 -122 -43.5
s-54.333 -69 -69 -120s-22 -110.833 -22 -179.5v-21c0 -94.667 16.333 -169.167 49 -223.5s87 -81.5 163 -81.5zM1007 871.002l-127 211h291v-176zM439.997 1311v249h302v-249h-302z" />
    <glyph glyph-name="uni0122" unicode="&#x122;" horiz-adv-x="1373" 
d="M733 -21c-144.667 0 -268 29.999 -370 89.999s-180.167 143.333 -234.5 250s-81.5 230.334 -81.5 371.001v50c0 145.333 27 273.333 81 384s130.5 197.167 229.5 259.5s216.167 93.5 351.5 93.5c104.667 0 203 -14.333 295 -43s172 -71.667 240 -129v-323h-216l-41 195
c-26 22.667 -61 40.834 -105 54.501s-94.333 20.5 -151 20.5c-81.333 0 -151.5 -21.333 -210.5 -64s-104.167 -102.334 -135.5 -179.001s-47 -165.667 -47 -267v-52c0 -98.667 15.5 -184.5 46.5 -257.5s76.5 -129.5 136.5 -169.5s133.667 -60 221 -60
c51.333 0 98.5 4.83301 141.5 14.5s78.5 21.5 106.5 35.5v247l-208 16v205h501v-589c-64.667 -46 -142.5 -83 -233.5 -111s-196.5 -42 -316.5 -42zM644 -532.001l-135 89.001c21.333 32.667 37.5 65.5 48.5 98.5s16.5 73.833 16.5 122.5v94h246v-81
c0 -63.333 -16.5 -123.333 -49.5 -180s-75.167 -104.334 -126.5 -143.001z" />
    <glyph glyph-name="uni0123" unicode="&#x123;" horiz-adv-x="1198" 
d="M540 -437c-54.667 0 -116.003 7.00098 -184.003 21.001s-128 34 -180 60l54 208c46.667 -20 96.167 -35.833 148.5 -47.5s101.166 -17.5 146.499 -17.5c78 0 135.167 21.667 171.5 65s54.5 103.666 54.5 180.999v71c-32 -40.667 -69.667 -71.667 -113 -93
s-93 -32 -149 -32c-88 0 -163.667 22.167 -227 66.5s-111.666 106.5 -144.999 186.5s-50 173 -50 279v21c0 114 16.667 213.667 50 299s81 151.833 143 199.5s136.333 71.5 223 71.5c64.667 0 120.334 -13.5 167.001 -40.5s86.334 -65.5 119.001 -115.5l21 136h254v-1050
c0 -95.333 -20.167 -178 -60.5 -248s-98.166 -124.333 -173.499 -163s-165.333 -58 -270 -58zM570.997 206.001c41.333 0 77 8.16797 107 24.501s54.333 40.166 73 71.499v470c-18.667 32.667 -43.167 58 -73.5 76s-65.5 27 -105.5 27c-50 0 -90.667 -14.5 -122 -43.5
s-54.333 -69 -69 -120s-22 -110.833 -22 -179.5v-21c0 -94.667 16.333 -169.167 49 -223.5s87 -81.5 163 -81.5zM1007 871.002l-127 211h291v-176zM612.997 1683l135 -89.999c-21.333 -32 -37.5 -64.5 -48.5 -97.5s-16.5 -73.833 -16.5 -122.5v-94h-246v80
c0 64 16.5 124.167 49.5 180.5s75.167 104.166 126.5 143.499z" />
    <glyph glyph-name="Hcircumflex" unicode="&#x124;" horiz-adv-x="1600" 
d="M56 0v175l155 30v1045l-155 30v176h603v-176l-156 -30v-420h594v420l-156 30v176h156h291h156v-176l-156 -30v-1045l156 -30v-175h-603v175l156 30v400h-594v-400l156 -30v-175h-603zM438 1573v26l255 243h215l253 -246v-23h-228l-133 144l-137 -144h-225z" />
    <glyph glyph-name="hcircumflex" unicode="&#x125;" horiz-adv-x="1302" 
d="M47 0l-0.00195312 174.998l141 30v1149l-156 30v176h447v-616c34 50 76.167 88.833 126.5 116.5s107.5 41.5 171.5 41.5c108.667 0 194.834 -36.167 258.501 -108.5s95.5 -184.166 95.5 -335.499v-453l140 -30v-175h-558v175l126 30v455c0 78 -14.667 133.333 -44 166
s-72.333 49 -129 49c-39.333 0 -75.166 -8.16699 -107.499 -24.5s-58.833 -40.166 -79.5 -71.499v-574l126 -30v-175h-558zM-23.002 1665v26l255 243h215l253 -246v-23h-228l-133 144l-137 -144h-225z" />
    <glyph glyph-name="Hbar" unicode="&#x126;" horiz-adv-x="1600" 
d="M56 0v175l155 30v1045l-155 30v176h603v-176l-156 -30v-420h594v420l-156 30v176h156h291h156v-176l-156 -30v-1045l156 -30v-175h-603v175l156 30v400h-594v-400l156 -30v-175h-603zM60 959v151h1479v-151h-1479z" />
    <glyph glyph-name="hbar" unicode="&#x127;" horiz-adv-x="1302" 
d="M47 0l-0.00195312 174.998l141 30v1149l-156 30v176h447v-616c34 50 76.167 88.833 126.5 116.5s107.5 41.5 171.5 41.5c108.667 0 194.834 -36.167 258.501 -108.5s95.5 -184.166 95.5 -335.499v-453l140 -30v-175h-558v175l126 30v455c0 78 -14.667 133.333 -44 166
s-72.333 49 -129 49c-39.333 0 -75.166 -8.16699 -107.499 -24.5s-58.833 -40.166 -79.5 -71.499v-574l126 -30v-175h-558zM31.998 1133v155h659v-155h-659z" />
    <glyph glyph-name="Itilde" unicode="&#x128;" horiz-adv-x="714" 
d="M56 0v175l155 30v1045l-155 30v176h602v-176l-155 -30v-1045l155 -30v-175h-602zM134 1565l-151 40.001c0 44.667 10.5 86 31.5 124s48.833 68.667 83.5 92s72.334 35 113.001 35c32 0 65.333 -8 100 -24s67.834 -32.167 99.501 -48.5s58.5 -24.5 80.5 -24.5
c27.333 0.666992 49.166 11.167 65.499 31.5s24.5 46.166 24.5 77.499l151 -42c0 -46 -10.5 -87.833 -31.5 -125.5s-48.833 -67.667 -83.5 -90s-72.667 -33.5 -114 -33.5c-34.667 0 -69.334 8 -104.001 24s-67 32.167 -97 48.5s-56.333 24.5 -79 24.5
c-27.333 0 -49 -10.667 -65 -32s-24 -47 -24 -77z" />
    <glyph glyph-name="itilde" unicode="&#x129;" horiz-adv-x="661" 
d="M54 0v175l141 30v671l-156 30v176h448v-877l140 -30v-175h-573zM113 1283l-151 40.001c0 44.667 10.5 86 31.5 124s48.833 68.667 83.5 92s72.334 35 113.001 35c32 0 65.333 -8 100 -24s67.834 -32.167 99.501 -48.5s58.5 -24.5 80.5 -24.5
c27.333 0.666992 49.166 11.167 65.499 31.5s24.5 46.166 24.5 77.499l151 -42c0 -46 -10.5 -87.833 -31.5 -125.5s-48.833 -67.667 -83.5 -90s-72.667 -33.5 -114 -33.5c-34.667 0 -69.334 8 -104.001 24s-67 32.167 -97 48.5s-56.333 24.5 -79 24.5
c-27.333 0 -49 -10.667 -65 -32s-24 -47 -24 -77z" />
    <glyph glyph-name="Imacron" unicode="&#x12a;" horiz-adv-x="714" 
d="M56 0v175l155 30v1045l-155 30v176h602v-176l-155 -30v-1045l155 -30v-175h-602zM-9 1594v176h731v-176h-731z" />
    <glyph glyph-name="imacron" unicode="&#x12b;" horiz-adv-x="661" 
d="M54 0v175l141 30v671l-156 30v176h448v-877l140 -30v-175h-573zM-30 1312v176h731v-176h-731z" />
    <glyph glyph-name="Ibreve" unicode="&#x12c;" horiz-adv-x="714" 
d="M56 0v175l155 30v1045l-155 30v176h602v-176l-155 -30v-1045l155 -30v-175h-602zM358 1545c-107.333 0 -192.668 27.167 -256.001 81.5s-93.666 124.166 -90.999 209.499l2 6h198c0 -38.667 11.833 -70.667 35.5 -96s60.834 -38 111.501 -38c50 0 86.667 12.333 110 37
s35 57 35 97h200l2 -6c1.33301 -85.333 -29.334 -155.166 -92.001 -209.499s-147.667 -81.5 -255 -81.5z" />
    <glyph glyph-name="ibreve" unicode="&#x12d;" horiz-adv-x="661" 
d="M54 0v175l141 30v671l-156 30v176h448v-877l140 -30v-175h-573zM337 1263c-107.333 0 -192.668 27.167 -256.001 81.5s-93.666 124.166 -90.999 209.499l2 6h198c0 -38.667 11.833 -70.667 35.5 -96s60.834 -38 111.501 -38c50 0 86.667 12.333 110 37s35 57 35 97h200
l2 -6c1.33301 -85.333 -29.334 -155.166 -92.001 -209.499s-147.667 -81.5 -255 -81.5z" />
    <glyph glyph-name="Iogonek" unicode="&#x12e;" horiz-adv-x="714" 
d="M56 0v175l155 30v1045l-155 30v176h602v-176l-155 -30v-1045l155 -30v-175h-602zM554 -424c-75.333 0 -136.5 19.167 -183.5 57.5s-70.5 91.833 -70.5 160.5c0 50 17.833 98.833 53.5 146.5s95.5 87.5 179.5 119.5l125 -60c-48.667 -30 -84 -58.333 -106 -85
s-33 -55 -33 -85c0 -25.333 7 -44.333 21 -57s36 -19 66 -19c16 0 30.667 1.5 44 4.5s26.666 6.83301 39.999 11.5l35 -154c-23.333 -11.333 -48.666 -20.833 -75.999 -28.5s-59 -11.5 -95 -11.5z" />
    <glyph glyph-name="iogonek" unicode="&#x12f;" horiz-adv-x="661" 
d="M54 0v175l141 30v671l-156 30v176h448v-877l140 -30v-175h-573zM185 1311v249h302v-249h-302zM523 -424c-75.333 0 -136.5 19.167 -183.5 57.5s-70.5 91.833 -70.5 160.5c0 50 17.833 98.833 53.5 146.5s95.5 87.5 179.5 119.5l125 -60c-48.667 -30 -84 -58.333 -106 -85
s-33 -55 -33 -85c0 -25.333 7 -44.333 21 -57s36 -19 66 -19c16 0 30.667 1.5 44 4.5s26.666 6.83301 39.999 11.5l35 -154c-23.333 -11.333 -48.666 -20.833 -75.999 -28.5s-59 -11.5 -95 -11.5z" />
    <glyph glyph-name="Idotaccent" unicode="&#x130;" horiz-adv-x="714" 
d="M56 0v175l155 30v1045l-155 30v176h602v-176l-155 -30v-1045l155 -30v-175h-602zM206 1593v249h302v-249h-302z" />
    <glyph glyph-name="dotlessi" unicode="&#x131;" horiz-adv-x="661" 
d="M54 0v175l141 30v671l-156 30v176h448v-877l140 -30v-175h-573z" />
    <glyph glyph-name="IJ" unicode="&#x132;" horiz-adv-x="1905" 
d="M56 0v175l155 30v1045l-155 30v176h602v-176l-155 -30v-1045l155 -30v-175h-602zM1266 -21c-101.333 0 -190.166 17.167 -266.499 51.5s-136.333 86.833 -180 157.5s-67.5 160.334 -71.5 269.001l2 6h274c5.33301 -95.333 26.666 -161.833 63.999 -199.5
s87 -56.5 149 -56.5c40 0 75.167 8.66699 105.5 26s54.333 43.166 72 77.499s26.5 76.5 26.5 126.5v813l-196 30v176h643v-176l-156 -30v-813c0 -93.333 -18 -174.333 -54 -243s-88.667 -121.667 -158 -159s-154 -56 -254 -56z" />
    <glyph glyph-name="ij" unicode="&#x133;" horiz-adv-x="1259" 
d="M54 0v175l141 30v671l-156 30v176h448v-877l140 -30v-175h-573zM185 1311v249h302v-249h-302zM765 -437c-27.333 0 -52.167 1.33301 -74.5 4s-45.5 7 -69.5 13l15 221c14.667 -4 30.167 -7.16699 46.5 -9.5s33.5 -3.5 51.5 -3.5c38 0 67.667 15 89 45s32 72.333 32 127
v916l-156 30v176h447v-1122c0 -127.333 -33.5 -225.333 -100.5 -294s-160.5 -103 -280.5 -103zM840.999 1311v249h302v-249h-302z" />
    <glyph glyph-name="Jcircumflex" unicode="&#x134;" horiz-adv-x="1202" 
d="M553 -21c-101.333 0 -190.166 17.167 -266.499 51.5s-136.333 86.833 -180 157.5s-67.5 160.334 -71.5 269.001l2 6h274c5.33301 -95.333 26.666 -161.833 63.999 -199.5s87 -56.5 149 -56.5c40 0 75.167 8.66699 105.5 26s54.333 43.166 72 77.499s26.5 76.5 26.5 126.5
v813l-196 30v176h643v-176l-156 -30v-813c0 -93.333 -18 -174.333 -54 -243s-88.667 -121.667 -158 -159s-154 -56 -254 -56zM506 1573v26l255 243h215l253 -246v-23h-228l-133 144l-137 -144h-225z" />
    <glyph glyph-name="jcircumflex" unicode="&#x135;" horiz-adv-x="600" 
d="M105 -437c-27.333 0 -52.167 1.33301 -74.5 4s-45.5 7 -69.5 13l15 221c14.667 -4 30.167 -7.16699 46.5 -9.5s33.5 -3.5 51.5 -3.5c38 0 67.667 15 89 45s32 72.333 32 127v916l-156 30v176h447v-1122c0 -127.333 -33.5 -225.333 -100.5 -294s-160.5 -103 -280.5 -103z
M-29.001 1291v26l255 243h215l253 -246v-23h-228l-133 144l-137 -144h-225z" />
    <glyph glyph-name="uni0136" unicode="&#x136;" horiz-adv-x="1545" 
d="M442 357l-151 173l713 735l2 3l-144 12v176h599v-176l-137 -27zM56 0v175l155 30v1045l-155 30v176h595v-176l-148 -30v-1045l148 -30v-175h-595zM894 0v175l136 12h1l-370 510l193 193l516 -690l143 -25v-175h-619zM729 -532l-135 89.001
c21.333 32.667 37.5 65.5 48.5 98.5s16.5 73.833 16.5 122.5v94h246v-81c0 -63.333 -16.5 -123.333 -49.5 -180s-75.167 -104.334 -126.5 -143.001z" />
    <glyph glyph-name="uni0137" unicode="&#x137;" horiz-adv-x="1316" 
d="M47 0v175l141 30v1149l-156 30v176h447v-1355l126 -30v-175h-558zM736 0v166l82 19l-2 4l-214 291l186 191l355 -465l134 -31v-175h-541zM448 296l-140 163l470 430l2 3l-111 16v174h563v-176l-140 -35zM615 -532l-135 89.001c21.333 32.667 37.5 65.5 48.5 98.5
s16.5 73.833 16.5 122.5v94h246v-81c0 -63.333 -16.5 -123.333 -49.5 -180s-75.167 -104.334 -126.5 -143.001z" />
    <glyph glyph-name="kgreenlandic" unicode="&#x138;" horiz-adv-x="1303" 
d="M461 293l-133 176l438 418l3 3l-102 18v174h551v-176l-139 -33zM51 0v175l146 33v664l-157 34v176h449v-874l138 -33v-175h-576zM913 0l-331 476l193 211l343 -481l125 -31v-175h-330z" />
    <glyph glyph-name="Lacute" unicode="&#x139;" horiz-adv-x="1200" 
d="M56 0v175l155 30v1045l-155 30v176h155h292h176v-176l-176 -30v-1026h411l14 213h223v-437h-1095zM197 1569l199 273h309l2 -6l-276 -267h-226h-8z" />
    <glyph glyph-name="lacute" unicode="&#x13a;" horiz-adv-x="653" 
d="M47 0v175l141 30v1149l-156 30v176h448v-1355l141 -30v-175h-574zM162 1661l199 273h309l2 -6l-276 -267h-226h-8z" />
    <glyph glyph-name="uni013B" unicode="&#x13b;" horiz-adv-x="1200" 
d="M56 0v175l155 30v1045l-155 30v176h155h292h176v-176l-176 -30v-1026h411l14 213h223v-437h-1095zM557 -532l-135 89.001c21.333 32.667 37.5 65.5 48.5 98.5s16.5 73.833 16.5 122.5v94h246v-81c0 -63.333 -16.5 -123.333 -49.5 -180s-75.167 -104.334 -126.5 -143.001z
" />
    <glyph glyph-name="uni013C" unicode="&#x13c;" horiz-adv-x="653" 
d="M47 0v175l141 30v1149l-156 30v176h448v-1355l141 -30v-175h-574zM294 -532l-135 89.001c21.333 32.667 37.5 65.5 48.5 98.5s16.5 73.833 16.5 122.5v94h246v-81c0 -63.333 -16.5 -123.333 -49.5 -180s-75.167 -104.334 -126.5 -143.001z" />
    <glyph glyph-name="Lcaron" unicode="&#x13d;" horiz-adv-x="1200" 
d="M56 0v175l155 30v1045l-155 30v176h155h292h176v-176l-176 -30v-1026h411l14 213h223v-437h-1095zM999 1052l-135 89.001c21.333 32.667 37.5 65.5 48.5 98.5s16.5 73.833 16.5 122.5v94h246v-81c0 -63.333 -16.5 -123.333 -49.5 -180s-75.167 -104.334 -126.5 -143.001z
" />
    <glyph glyph-name="lcaron" unicode="&#x13e;" horiz-adv-x="653" 
d="M47 0v175l141 30v1149l-156 30v176h448v-1355l141 -30v-175h-574zM676 1156l-135 89.001c21.333 32.667 37.5 65.5 48.5 98.5s16.5 73.833 16.5 122.5v94h246v-81c0 -63.333 -16.5 -123.333 -49.5 -180s-75.167 -104.334 -126.5 -143.001z" />
    <glyph glyph-name="Ldot" unicode="&#x13f;" horiz-adv-x="1200" 
d="M56 0v175l155 30v1045l-155 30v176h155h292h176v-176l-176 -30v-1026h411l14 213h223v-437h-1095zM836 614v256h291v-256h-291z" />
    <glyph glyph-name="ldot" unicode="&#x140;" horiz-adv-x="653" 
d="M47 0v175l141 30v1149l-156 30v176h448v-1355l141 -30v-175h-574zM606 614v256h291v-256h-291z" />
    <glyph glyph-name="Lslash" unicode="&#x141;" horiz-adv-x="1200" 
d="M56 0v175l155 30v1045l-155 30v176h155h292h176v-176l-176 -30v-1026h411l14 213h223v-437h-1095zM77 571v195l650 187v-195z" />
    <glyph glyph-name="lslash" unicode="&#x142;" horiz-adv-x="653" 
d="M47 0v175l141 30v1149l-156 30v176h448v-1355l141 -30v-175h-574zM54 572v195l565 187v-195z" />
    <glyph glyph-name="Nacute" unicode="&#x143;" horiz-adv-x="1604" 
d="M56 0v175l155 30v1045l-155 30v176h155h296l634 -1010l6 1v803l-186 30v176h447h156v-176l-156 -30v-1250h-282l-648 1000l-6 -1v-794l187 -30v-175h-603zM628 1569l199 273h309l2 -6l-276 -267h-226h-8z" />
    <glyph glyph-name="nacute" unicode="&#x144;" horiz-adv-x="1307" 
d="M52 0l0.000976562 175.002l140 30v671l-155 30v176h427l13 -155c36 55.333 80.5 98.333 133.5 129s113.5 46 181.5 46c107.333 0 191.333 -34.333 252 -103s91 -176.334 91 -323.001v-471l140 -30v-175h-558v175l125 30v470c0 72.667 -14.333 124.167 -43 154.5
s-71.334 45.5 -128.001 45.5c-42 0 -78.5 -8.83301 -109.5 -26.5s-56.833 -42.834 -77.5 -75.501v-568l118 -30v-175h-550zM481.001 1287l199 273h309l2 -6l-276 -267h-226h-8z" />
    <glyph glyph-name="uni0145" unicode="&#x145;" horiz-adv-x="1604" 
d="M56 0v175l155 30v1045l-155 30v176h155h296l634 -1010l6 1v803l-186 30v176h447h156v-176l-156 -30v-1250h-282l-648 1000l-6 -1v-794l187 -30v-175h-603zM759 -532l-135 89.001c21.333 32.667 37.5 65.5 48.5 98.5s16.5 73.833 16.5 122.5v94h246v-81
c0 -63.333 -16.5 -123.333 -49.5 -180s-75.167 -104.334 -126.5 -143.001z" />
    <glyph glyph-name="uni0146" unicode="&#x146;" horiz-adv-x="1307" 
d="M52 0l0.000976562 175.002l140 30v671l-155 30v176h427l13 -155c36 55.333 80.5 98.333 133.5 129s113.5 46 181.5 46c107.333 0 191.333 -34.333 252 -103s91 -176.334 91 -323.001v-471l140 -30v-175h-558v175l125 30v470c0 72.667 -14.333 124.167 -43 154.5
s-71.334 45.5 -128.001 45.5c-42 0 -78.5 -8.83301 -109.5 -26.5s-56.833 -42.834 -77.5 -75.501v-568l118 -30v-175h-550zM613.001 -531.998l-135 89.001c21.333 32.667 37.5 65.5 48.5 98.5s16.5 73.833 16.5 122.5v94h246v-81c0 -63.333 -16.5 -123.333 -49.5 -180
s-75.167 -104.334 -126.5 -143.001z" />
    <glyph glyph-name="Ncaron" unicode="&#x147;" horiz-adv-x="1604" 
d="M56 0v175l155 30v1045l-155 30v176h155h296l634 -1010l6 1v803l-186 30v176h447h156v-176l-156 -30v-1250h-282l-648 1000l-6 -1v-794l187 -30v-175h-603zM1163 1842v-26l-254 -243h-216l-253 246v23h228l134 -144l137 144h224z" />
    <glyph glyph-name="ncaron" unicode="&#x148;" horiz-adv-x="1307" 
d="M52 0l0.000976562 175.002l140 30v671l-155 30v176h427l13 -155c36 55.333 80.5 98.333 133.5 129s113.5 46 181.5 46c107.333 0 191.333 -34.333 252 -103s91 -176.334 91 -323.001v-471l140 -30v-175h-558v175l125 30v470c0 72.667 -14.333 124.167 -43 154.5
s-71.334 45.5 -128.001 45.5c-42 0 -78.5 -8.83301 -109.5 -26.5s-56.833 -42.834 -77.5 -75.501v-568l118 -30v-175h-550zM1016 1560v-26l-254 -243h-216l-253 246v23h228l134 -144l137 144h224z" />
    <glyph glyph-name="napostrophe" unicode="&#x149;" horiz-adv-x="1307" 
d="M52 0l0.000976562 175.002l140 30v671l-155 30v176h427l13 -155c36 55.333 80.5 98.333 133.5 129s113.5 46 181.5 46c107.333 0 191.333 -34.333 252 -103s91 -176.334 91 -323.001v-471l140 -30v-175h-558v175l125 30v470c0 72.667 -14.333 124.167 -43 154.5
s-71.334 45.5 -128.001 45.5c-42 0 -78.5 -8.83301 -109.5 -26.5s-56.833 -42.834 -77.5 -75.501v-568l118 -30v-175h-550zM167.001 1156l-135 89.001c21.333 32.667 37.5 65.5 48.5 98.5s16.5 73.833 16.5 122.5v94h246v-81c0 -63.333 -16.5 -123.333 -49.5 -180
s-75.167 -104.334 -126.5 -143.001z" />
    <glyph glyph-name="Eng" unicode="&#x14a;" horiz-adv-x="1584" 
d="M1019 -437c-27.333 0 -52 1.33301 -74 4s-45.333 7 -70 13l14 221c15.333 -4 31 -7.16699 47 -9.5s32 -3.5 48 -3.5c40 0 70.833 15 92.5 45s32.5 72.333 32.5 127v40l-587 982l-6 -1v-776l155 -30v-175h-603v175l156 30v1045l-156 30v176h448l587 -981l6 1v774l-155 30
v176h602v-176l-155 -30v-1290c0 -126.667 -33.667 -224.5 -101 -293.5s-161 -103.5 -281 -103.5z" />
    <glyph glyph-name="eng" unicode="&#x14b;" horiz-adv-x="1282" 
d="M792 -437c-27.333 0 -52.333 1.33203 -75 3.99902s-46 7 -70 13l14 224c14.667 -3.33301 30.167 -6.16602 46.5 -8.49902s33.166 -3.5 50.499 -3.5c40 0 70.5 14.333 91.5 43s31.5 70.334 31.5 125.001v702c0 77.333 -13.5 132.166 -40.5 164.499
s-68.167 48.5 -123.5 48.5c-42 0 -79.167 -9 -111.5 -27s-59.166 -42.667 -80.499 -74v-569l140 -30v-175h-572v175l140 30v671l-155 30v176h426l14 -152c35.333 54 79.666 96.167 132.999 126.5s113.333 45.5 180 45.5c106 0 189.5 -35.333 250.5 -106
s91.5 -181.667 91.5 -333v-703c0 -126.667 -33.667 -224.5 -101 -293.5s-160.666 -103.5 -279.999 -103.5z" />
    <glyph glyph-name="Omacron" unicode="&#x14c;" horiz-adv-x="1446" 
d="M723 -21c-98 0 -187.334 18.333 -268.001 55s-150.167 88.167 -208.5 154.5s-103.166 144.333 -134.499 234s-47 187.834 -47 294.501v22c0 106 15.667 203.833 47 293.5s76 167.834 134 234.501s127.333 118.334 208 155.001s170 55 268 55
c98.667 0 188.667 -18.333 270 -55s151.333 -88.334 210 -155.001s103.834 -144.834 135.501 -234.501s47.5 -187.5 47.5 -293.5v-22c0 -106.667 -15.833 -204.834 -47.5 -294.501s-76.834 -167.667 -135.501 -234s-128.5 -117.833 -209.5 -154.5s-170.833 -55 -269.5 -55z
M722.999 206c82.667 0 151.333 21.333 206 64s95.834 102.334 123.501 179.001s41.5 166 41.5 268v24c0 100.667 -14 189.167 -42 265.5s-69.5 135.833 -124.5 178.5s-123.5 64 -205.5 64c-81.333 0 -149 -21.167 -203 -63.5s-94.5 -101.5 -121.5 -177.5
s-40.5 -165 -40.5 -267v-24c0 -102 13.5 -191.333 40.5 -268s67.667 -136.334 122 -179.001s122.166 -64 203.499 -64zM357.998 1594v176h731v-176h-731z" />
    <glyph glyph-name="omacron" unicode="&#x14d;" horiz-adv-x="1155" 
d="M579 -21c-106.667 0 -198.332 23.333 -274.999 70s-135.334 111.5 -176.001 194.5s-61 178.5 -61 286.5v21c0 107.333 20.333 202.5 61 285.5s99.167 148 175.5 195s167.5 70.5 273.5 70.5c107.333 0 199 -23.5 275 -70.5s134.333 -111.833 175 -194.5s61 -178 61 -286
v-21c0 -108 -20.333 -203.5 -61 -286.5s-99 -147.833 -175 -194.5s-167 -70 -273 -70zM579.002 203c50.667 0 91.998 13.666 123.998 40.999s55.667 65.5 71 114.5s23 106.167 23 171.5v21c0 64 -7.66699 120.5 -23 169.5s-39.166 87.333 -71.499 115
s-74.166 41.5 -125.499 41.5c-50 0 -91.333 -13.833 -124 -41.5s-56.5 -66 -71.5 -115s-22.5 -105.5 -22.5 -169.5v-21c0 -65.333 7.5 -122.666 22.5 -171.999s38.833 -87.5 71.5 -114.5s74.667 -40.5 126 -40.5zM212 1312v176h731v-176h-731z" />
    <glyph glyph-name="Obreve" unicode="&#x14e;" horiz-adv-x="1446" 
d="M723 -21c-98 0 -187.334 18.333 -268.001 55s-150.167 88.167 -208.5 154.5s-103.166 144.333 -134.499 234s-47 187.834 -47 294.501v22c0 106 15.667 203.833 47 293.5s76 167.834 134 234.501s127.333 118.334 208 155.001s170 55 268 55
c98.667 0 188.667 -18.333 270 -55s151.333 -88.334 210 -155.001s103.834 -144.834 135.501 -234.501s47.5 -187.5 47.5 -293.5v-22c0 -106.667 -15.833 -204.834 -47.5 -294.501s-76.834 -167.667 -135.501 -234s-128.5 -117.833 -209.5 -154.5s-170.833 -55 -269.5 -55z
M722.999 206c82.667 0 151.333 21.333 206 64s95.834 102.334 123.501 179.001s41.5 166 41.5 268v24c0 100.667 -14 189.167 -42 265.5s-69.5 135.833 -124.5 178.5s-123.5 64 -205.5 64c-81.333 0 -149 -21.167 -203 -63.5s-94.5 -101.5 -121.5 -177.5
s-40.5 -165 -40.5 -267v-24c0 -102 13.5 -191.333 40.5 -268s67.667 -136.334 122 -179.001s122.166 -64 203.499 -64zM723.998 1545c-107.333 0 -192.668 27.167 -256.001 81.5s-93.666 124.166 -90.999 209.499l2 6h198c0 -38.667 11.833 -70.667 35.5 -96
s60.834 -38 111.501 -38c50 0 86.667 12.333 110 37s35 57 35 97h200l2 -6c1.33301 -85.333 -29.334 -155.166 -92.001 -209.499s-147.667 -81.5 -255 -81.5z" />
    <glyph glyph-name="obreve" unicode="&#x14f;" horiz-adv-x="1155" 
d="M579 -21c-106.667 0 -198.332 23.333 -274.999 70s-135.334 111.5 -176.001 194.5s-61 178.5 -61 286.5v21c0 107.333 20.333 202.5 61 285.5s99.167 148 175.5 195s167.5 70.5 273.5 70.5c107.333 0 199 -23.5 275 -70.5s134.333 -111.833 175 -194.5s61 -178 61 -286
v-21c0 -108 -20.333 -203.5 -61 -286.5s-99 -147.833 -175 -194.5s-167 -70 -273 -70zM579.002 203c50.667 0 91.998 13.666 123.998 40.999s55.667 65.5 71 114.5s23 106.167 23 171.5v21c0 64 -7.66699 120.5 -23 169.5s-39.166 87.333 -71.499 115
s-74.166 41.5 -125.499 41.5c-50 0 -91.333 -13.833 -124 -41.5s-56.5 -66 -71.5 -115s-22.5 -105.5 -22.5 -169.5v-21c0 -65.333 7.5 -122.666 22.5 -171.999s38.833 -87.5 71.5 -114.5s74.667 -40.5 126 -40.5zM578 1263c-107.333 0 -192.668 27.167 -256.001 81.5
s-93.666 124.166 -90.999 209.499l2 6h198c0 -38.667 11.833 -70.667 35.5 -96s60.834 -38 111.501 -38c50 0 86.667 12.333 110 37s35 57 35 97h200l2 -6c1.33301 -85.333 -29.334 -155.166 -92.001 -209.499s-147.667 -81.5 -255 -81.5z" />
    <glyph glyph-name="Ohungarumlaut" unicode="&#x150;" horiz-adv-x="1446" 
d="M723 -21c-98 0 -187.334 18.333 -268.001 55s-150.167 88.167 -208.5 154.5s-103.166 144.333 -134.499 234s-47 187.834 -47 294.501v22c0 106 15.667 203.833 47 293.5s76 167.834 134 234.501s127.333 118.334 208 155.001s170 55 268 55
c98.667 0 188.667 -18.333 270 -55s151.333 -88.334 210 -155.001s103.834 -144.834 135.501 -234.501s47.5 -187.5 47.5 -293.5v-22c0 -106.667 -15.833 -204.834 -47.5 -294.501s-76.834 -167.667 -135.501 -234s-128.5 -117.833 -209.5 -154.5s-170.833 -55 -269.5 -55z
M722.999 206c82.667 0 151.333 21.333 206 64s95.834 102.334 123.501 179.001s41.5 166 41.5 268v24c0 100.667 -14 189.167 -42 265.5s-69.5 135.833 -124.5 178.5s-123.5 64 -205.5 64c-81.333 0 -149 -21.167 -203 -63.5s-94.5 -101.5 -121.5 -177.5
s-40.5 -165 -40.5 -267v-24c0 -102 13.5 -191.333 40.5 -268s67.667 -136.334 122 -179.001s122.166 -64 203.499 -64zM711.998 1569l-2 5l240 268h277l2 -6l-293 -267h-224zM372.998 1569h-7l199 273h260l2 -5l-240 -268h-214z" />
    <glyph glyph-name="ohungarumlaut" unicode="&#x151;" horiz-adv-x="1155" 
d="M579 -21c-106.667 0 -198.332 23.333 -274.999 70s-135.334 111.5 -176.001 194.5s-61 178.5 -61 286.5v21c0 107.333 20.333 202.5 61 285.5s99.167 148 175.5 195s167.5 70.5 273.5 70.5c107.333 0 199 -23.5 275 -70.5s134.333 -111.833 175 -194.5s61 -178 61 -286
v-21c0 -108 -20.333 -203.5 -61 -286.5s-99 -147.833 -175 -194.5s-167 -70 -273 -70zM579.002 203c50.667 0 91.998 13.666 123.998 40.999s55.667 65.5 71 114.5s23 106.167 23 171.5v21c0 64 -7.66699 120.5 -23 169.5s-39.166 87.333 -71.499 115
s-74.166 41.5 -125.499 41.5c-50 0 -91.333 -13.833 -124 -41.5s-56.5 -66 -71.5 -115s-22.5 -105.5 -22.5 -169.5v-21c0 -65.333 7.5 -122.666 22.5 -171.999s38.833 -87.5 71.5 -114.5s74.667 -40.5 126 -40.5zM567 1287l-2 5l240 268h277l2 -6l-293 -267h-224zM228 1287
h-7l199 273h260l2 -5l-240 -268h-214z" />
    <glyph glyph-name="OE" unicode="&#x152;" horiz-adv-x="2029" 
d="M751 -21c-104 0 -198.165 18.3311 -282.498 54.998s-156.666 88.167 -216.999 154.5s-106.5 144.333 -138.5 234s-48 187.834 -48 294.501v22c0 106 16 203.833 48 293.5s78 167.834 138 234.501s132 118.334 216 155.001s178.333 55 283 55
c55.333 0 111.333 -4.5 168 -13.5s113 -22.167 169 -39.5v-282c-48 34 -101.167 60.333 -159.5 79s-117.5 28 -177.5 28c-90 0 -164 -21.167 -222 -63.5s-101 -101.5 -129 -177.5s-42 -165 -42 -267v-24c0 -102 14.167 -191.333 42.5 -268s71.666 -136.334 129.999 -179.001
s132.166 -64 221.499 -64c59.333 0 117.833 8.66699 175.5 26s111.167 41.333 160.5 72v-273c-56 -16.667 -112.333 -29.5 -169 -38.5s-112.334 -13.5 -167.001 -13.5zM864.002 -0.00195312l66 191v1073l-66 192h1061v-399h-224l-13 174h-466v-366h493v-225h-493v-416h470
l13 174h222v-398h-1063z" />
    <glyph glyph-name="oe" unicode="&#x153;" horiz-adv-x="1828" 
d="M579 -21c-106.667 0 -198.331 23.333 -274.998 70s-135.334 111.5 -176.001 194.5s-61 178.5 -61 286.5v21c0 107.333 20.333 202.5 61 285.5s99.167 148 175.5 195s167.5 70.5 273.5 70.5c76.667 0 146.167 -14.167 208.5 -42.5s115.833 -68.5 160.5 -120.5
c42.667 53.333 93.5 93.833 152.5 121.5s124.5 41.5 196.5 41.5c97.333 0 180.333 -19.833 249 -59.5s121.167 -96.167 157.5 -169.5s54.5 -160 54.5 -260v-159h-648l-1 -6c3.33301 -47.333 15.166 -89.5 35.499 -126.5s48 -66 83 -87s77.167 -31.5 126.5 -31.5
c43.333 0 81.166 2.83301 113.499 8.5s63.166 14.5 92.499 26.5s60.666 27.333 93.999 46l80 -180c-44 -35.333 -101.667 -65 -173 -89s-150.666 -36 -237.999 -36c-52 0 -100.833 6.16699 -146.5 18.5s-87.5 30.5 -125.5 54.5s-72 53.333 -102 88
c-43.333 -52.667 -96.166 -92.667 -158.499 -120s-132.166 -41 -209.499 -41zM579.003 203c50 0 91 13.666 123 40.999s55.833 65.5 71.5 114.5s23.5 106.167 23.5 171.5v21c0 64 -7.83301 120.5 -23.5 169.5s-39.667 87.333 -72 115s-73.833 41.5 -124.5 41.5
s-92.167 -13.833 -124.5 -41.5s-56 -66 -71 -115s-22.5 -105.5 -22.5 -169.5v-21c0 -65.333 7.5 -122.666 22.5 -171.999s38.833 -87.5 71.5 -114.5s74.667 -40.5 126 -40.5zM1111 646.999h359.001v26c0 42 -6.5 78.167 -19.5 108.5s-32.333 53.833 -58 70.5
s-58.167 25 -97.5 25c-36 0 -67 -9.33301 -93 -28s-46.833 -45 -62.5 -79s-25.834 -73.333 -30.501 -118z" />
    <glyph glyph-name="Racute" unicode="&#x154;" horiz-adv-x="1408" 
d="M56 0v175.002l155 30v1045l-155 30v176h690c112 0 208 -17.333 288 -52s141.5 -84.334 184.5 -149.001s64.5 -142.334 64.5 -233.001c0 -85.333 -21.333 -161.666 -64 -228.999s-102 -120.333 -178 -159s-163.667 -58.334 -263 -59.001h-275v-370l156 -30v-175h-603z
M993 0.00195312l-245 629l263 65l212 -490l124 -29v-175h-354zM503 800.002l237.999 0.000976562c84 0 146.833 17.833 188.5 53.5s62.5 87.5 62.5 155.5c0 67.333 -20.667 121.166 -62 161.499s-102.666 60.5 -183.999 60.5h-243v-431zM524.999 1569l199 273h309l2 -6
l-276 -267h-226h-8z" />
    <glyph glyph-name="racute" unicode="&#x155;" horiz-adv-x="886" 
d="M85 0v175l140 30v671l-155 30v176h427l11 -134l2 -24c26.667 58.667 59.667 103 99 133s86.333 45 141 45c17.333 0 36.333 -1.5 57 -4.5s39 -6.83301 55 -11.5l-31 -269l-145 8c-41.333 2 -74.833 -5 -100.5 -21s-48.5 -39 -68.5 -69v-530l140 -30v-175h-572zM278 1287
l199 273h309l2 -6l-276 -267h-226h-8z" />
    <glyph glyph-name="uni0156" unicode="&#x156;" horiz-adv-x="1408" 
d="M56 0v175.002l155 30v1045l-155 30v176h690c112 0 208 -17.333 288 -52s141.5 -84.334 184.5 -149.001s64.5 -142.334 64.5 -233.001c0 -85.333 -21.333 -161.666 -64 -228.999s-102 -120.333 -178 -159s-163.667 -58.334 -263 -59.001h-275v-370l156 -30v-175h-603z
M993 0.00195312l-245 629l263 65l212 -490l124 -29v-175h-354zM503 800.002l237.999 0.000976562c84 0 146.833 17.833 188.5 53.5s62.5 87.5 62.5 155.5c0 67.333 -20.667 121.166 -62 161.499s-102.666 60.5 -183.999 60.5h-243v-431zM660.999 -531.997l-135 89.001
c21.333 32.667 37.5 65.5 48.5 98.5s16.5 73.833 16.5 122.5v94h246v-81c0 -63.333 -16.5 -123.333 -49.5 -180s-75.167 -104.334 -126.5 -143.001z" />
    <glyph glyph-name="uni0157" unicode="&#x157;" horiz-adv-x="886" 
d="M85 0v175l140 30v671l-155 30v176h427l11 -134l2 -24c26.667 58.667 59.667 103 99 133s86.333 45 141 45c17.333 0 36.333 -1.5 57 -4.5s39 -6.83301 55 -11.5l-31 -269l-145 8c-41.333 2 -74.833 -5 -100.5 -21s-48.5 -39 -68.5 -69v-530l140 -30v-175h-572zM367 -532
l-135 89.001c21.333 32.667 37.5 65.5 48.5 98.5s16.5 73.833 16.5 122.5v94h246v-81c0 -63.333 -16.5 -123.333 -49.5 -180s-75.167 -104.334 -126.5 -143.001z" />
    <glyph glyph-name="Rcaron" unicode="&#x158;" horiz-adv-x="1408" 
d="M56 0v175.002l155 30v1045l-155 30v176h690c112 0 208 -17.333 288 -52s141.5 -84.334 184.5 -149.001s64.5 -142.334 64.5 -233.001c0 -85.333 -21.333 -161.666 -64 -228.999s-102 -120.333 -178 -159s-163.667 -58.334 -263 -59.001h-275v-370l156 -30v-175h-603z
M993 0.00195312l-245 629l263 65l212 -490l124 -29v-175h-354zM503 800.002l237.999 0.000976562c84 0 146.833 17.833 188.5 53.5s62.5 87.5 62.5 155.5c0 67.333 -20.667 121.166 -62 161.499s-102.666 60.5 -183.999 60.5h-243v-431zM1061 1842v-26l-254 -243h-216
l-253 246v23h228l134 -144l137 144h224z" />
    <glyph glyph-name="rcaron" unicode="&#x159;" horiz-adv-x="886" 
d="M85 0v175l140 30v671l-155 30v176h427l11 -134l2 -24c26.667 58.667 59.667 103 99 133s86.333 45 141 45c17.333 0 36.333 -1.5 57 -4.5s39 -6.83301 55 -11.5l-31 -269l-145 8c-41.333 2 -74.833 -5 -100.5 -21s-48.5 -39 -68.5 -69v-530l140 -30v-175h-572zM813 1560
v-26l-254 -243h-216l-253 246v23h228l134 -144l137 144h224z" />
    <glyph glyph-name="Sacute" unicode="&#x15a;" horiz-adv-x="1247" 
d="M650 -21c-107.333 0 -204.995 12.002 -292.995 36.002s-174.667 65.667 -260 125v352h226l31 -207c30 -25.333 71.333 -45.833 124 -61.5s110 -23.5 172 -23.5c52.667 0 97.167 7.33301 133.5 22s64 35.5 83 62.5s28.5 58.833 28.5 95.5c0 34.667 -8.5 65.5 -25.5 92.5
s-45 51.667 -84 74s-91.833 43.833 -158.5 64.5c-115.333 34 -210.833 71.167 -286.5 111.5s-132.334 88.666 -170.001 144.999s-56.5 124.166 -56.5 203.499c0 78.667 21.833 148.167 65.5 208.5s104.167 107.833 181.5 142.5s166.666 52.667 267.999 54
c112 1.33301 211.167 -12 297.5 -40s160.833 -67 223.5 -117v-328h-219l-38 200c-25.333 16 -59.5 30 -102.5 42s-91.833 18 -146.5 18c-46.667 0 -87.834 -7 -123.501 -21s-63.834 -34.333 -84.501 -61s-31 -59 -31 -97c0 -32.667 9 -61.167 27 -85.5
s48.167 -47.333 90.5 -69s100.833 -44.834 175.5 -69.501c160.667 -44.667 282.5 -103.667 365.5 -177s124.5 -169.666 124.5 -288.999c0 -82.667 -22.333 -154.167 -67 -214.5s-107.334 -106.833 -188.001 -139.5s-175 -49 -283 -49zM449.005 1569l199 273h309l2 -6
l-276 -267h-226h-8z" />
    <glyph glyph-name="sacute" unicode="&#x15b;" horiz-adv-x="1034" 
d="M527 -21c-80.667 0 -155.834 7.66797 -225.501 23.001s-136.5 37.333 -200.5 66l-3 306h203l39 -156c22.667 -11.333 47.5 -20.333 74.5 -27s57.833 -10 92.5 -10c65.333 0 111.333 10.667 138 32s40 48 40 80c0 30 -14.167 56.5 -42.5 79.5s-84.833 43.167 -169.5 60.5
c-128 26.667 -222.333 68 -283 124s-91 127.667 -91 215c0 60 15.167 114.667 45.5 164s76.666 89 138.999 119s142.166 45 239.499 45c81.333 0 155.833 -7.83301 223.5 -23.5s124.5 -36.167 170.5 -61.5l3 -296h-202l-31 142c-18 13.333 -39.167 23.333 -63.5 30
s-51.833 10 -82.5 10c-51.333 0 -90.666 -10.333 -117.999 -31s-41 -47.334 -41 -80.001c0 -18.667 4.83301 -36 14.5 -52s28.834 -31 57.501 -45s70.334 -27.333 125.001 -40c134 -30.667 231.667 -71.5 293 -122.5s92 -122.5 92 -214.5c0 -100.667 -36.5 -182 -109.5 -244
s-182.167 -93 -327.5 -93zM343 1287l199 273h309l2 -6l-276 -267h-226h-8z" />
    <glyph glyph-name="Scircumflex" unicode="&#x15c;" horiz-adv-x="1247" 
d="M650 -21c-107.333 0 -204.995 12.002 -292.995 36.002s-174.667 65.667 -260 125v352h226l31 -207c30 -25.333 71.333 -45.833 124 -61.5s110 -23.5 172 -23.5c52.667 0 97.167 7.33301 133.5 22s64 35.5 83 62.5s28.5 58.833 28.5 95.5c0 34.667 -8.5 65.5 -25.5 92.5
s-45 51.667 -84 74s-91.833 43.833 -158.5 64.5c-115.333 34 -210.833 71.167 -286.5 111.5s-132.334 88.666 -170.001 144.999s-56.5 124.166 -56.5 203.499c0 78.667 21.833 148.167 65.5 208.5s104.167 107.833 181.5 142.5s166.666 52.667 267.999 54
c112 1.33301 211.167 -12 297.5 -40s160.833 -67 223.5 -117v-328h-219l-38 200c-25.333 16 -59.5 30 -102.5 42s-91.833 18 -146.5 18c-46.667 0 -87.834 -7 -123.501 -21s-63.834 -34.333 -84.501 -61s-31 -59 -31 -97c0 -32.667 9 -61.167 27 -85.5
s48.167 -47.333 90.5 -69s100.833 -44.834 175.5 -69.501c160.667 -44.667 282.5 -103.667 365.5 -177s124.5 -169.666 124.5 -288.999c0 -82.667 -22.333 -154.167 -67 -214.5s-107.334 -106.833 -188.001 -139.5s-175 -49 -283 -49zM261.005 1573v26l255 243h215l253 -246
v-23h-228l-133 144l-137 -144h-225z" />
    <glyph glyph-name="scircumflex" unicode="&#x15d;" horiz-adv-x="1034" 
d="M527 -21c-80.667 0 -155.834 7.66797 -225.501 23.001s-136.5 37.333 -200.5 66l-3 306h203l39 -156c22.667 -11.333 47.5 -20.333 74.5 -27s57.833 -10 92.5 -10c65.333 0 111.333 10.667 138 32s40 48 40 80c0 30 -14.167 56.5 -42.5 79.5s-84.833 43.167 -169.5 60.5
c-128 26.667 -222.333 68 -283 124s-91 127.667 -91 215c0 60 15.167 114.667 45.5 164s76.666 89 138.999 119s142.166 45 239.499 45c81.333 0 155.833 -7.83301 223.5 -23.5s124.5 -36.167 170.5 -61.5l3 -296h-202l-31 142c-18 13.333 -39.167 23.333 -63.5 30
s-51.833 10 -82.5 10c-51.333 0 -90.666 -10.333 -117.999 -31s-41 -47.334 -41 -80.001c0 -18.667 4.83301 -36 14.5 -52s28.834 -31 57.501 -45s70.334 -27.333 125.001 -40c134 -30.667 231.667 -71.5 293 -122.5s92 -122.5 92 -214.5c0 -100.667 -36.5 -182 -109.5 -244
s-182.167 -93 -327.5 -93zM155 1291v26l255 243h215l253 -246v-23h-228l-133 144l-137 -144h-225z" />
    <glyph glyph-name="Scedilla" unicode="&#x15e;" horiz-adv-x="1247" 
d="M650 -21c-107.333 0 -204.995 12.002 -292.995 36.002s-174.667 65.667 -260 125v352h226l31 -207c30 -25.333 71.333 -45.833 124 -61.5s110 -23.5 172 -23.5c52.667 0 97.167 7.33301 133.5 22s64 35.5 83 62.5s28.5 58.833 28.5 95.5c0 34.667 -8.5 65.5 -25.5 92.5
s-45 51.667 -84 74s-91.833 43.833 -158.5 64.5c-115.333 34 -210.833 71.167 -286.5 111.5s-132.334 88.666 -170.001 144.999s-56.5 124.166 -56.5 203.499c0 78.667 21.833 148.167 65.5 208.5s104.167 107.833 181.5 142.5s166.666 52.667 267.999 54
c112 1.33301 211.167 -12 297.5 -40s160.833 -67 223.5 -117v-328h-219l-38 200c-25.333 16 -59.5 30 -102.5 42s-91.833 18 -146.5 18c-46.667 0 -87.834 -7 -123.501 -21s-63.834 -34.333 -84.501 -61s-31 -59 -31 -97c0 -32.667 9 -61.167 27 -85.5
s48.167 -47.333 90.5 -69s100.833 -44.834 175.5 -69.501c160.667 -44.667 282.5 -103.667 365.5 -177s124.5 -169.666 124.5 -288.999c0 -82.667 -22.333 -154.167 -67 -214.5s-107.334 -106.833 -188.001 -139.5s-175 -49 -283 -49zM505.005 -458.998l-7 159.999
c40 0 71.833 6.5 95.5 19.5s35.5 32.833 35.5 59.5c0 28.667 -11.667 48.5 -35 59.5s-60.333 17.833 -111 20.5l34 158h215l-13 -74c44.667 -7.33301 82 -24.166 112 -50.499s45 -65.5 45 -117.5c0 -71.333 -32.333 -128.333 -97 -171s-156 -64 -274 -64z" />
    <glyph glyph-name="scedilla" unicode="&#x15f;" horiz-adv-x="1034" 
d="M527 -21c-80.667 0 -155.834 7.66797 -225.501 23.001s-136.5 37.333 -200.5 66l-3 306h203l39 -156c22.667 -11.333 47.5 -20.333 74.5 -27s57.833 -10 92.5 -10c65.333 0 111.333 10.667 138 32s40 48 40 80c0 30 -14.167 56.5 -42.5 79.5s-84.833 43.167 -169.5 60.5
c-128 26.667 -222.333 68 -283 124s-91 127.667 -91 215c0 60 15.167 114.667 45.5 164s76.666 89 138.999 119s142.166 45 239.499 45c81.333 0 155.833 -7.83301 223.5 -23.5s124.5 -36.167 170.5 -61.5l3 -296h-202l-31 142c-18 13.333 -39.167 23.333 -63.5 30
s-51.833 10 -82.5 10c-51.333 0 -90.666 -10.333 -117.999 -31s-41 -47.334 -41 -80.001c0 -18.667 4.83301 -36 14.5 -52s28.834 -31 57.501 -45s70.334 -27.333 125.001 -40c134 -30.667 231.667 -71.5 293 -122.5s92 -122.5 92 -214.5c0 -100.667 -36.5 -182 -109.5 -244
s-182.167 -93 -327.5 -93zM399 -458.999l-7 159.999c40 0 71.833 6.5 95.5 19.5s35.5 32.833 35.5 59.5c0 28.667 -11.667 48.5 -35 59.5s-60.333 17.833 -111 20.5l34 158h215l-13 -74c44.667 -7.33301 82 -24.166 112 -50.499s45 -65.5 45 -117.5
c0 -71.333 -32.333 -128.333 -97 -171s-156 -64 -274 -64z" />
    <glyph glyph-name="Scaron" unicode="&#x160;" horiz-adv-x="1247" 
d="M650 -21c-107.333 0 -204.995 12.002 -292.995 36.002s-174.667 65.667 -260 125v352h226l31 -207c30 -25.333 71.333 -45.833 124 -61.5s110 -23.5 172 -23.5c52.667 0 97.167 7.33301 133.5 22s64 35.5 83 62.5s28.5 58.833 28.5 95.5c0 34.667 -8.5 65.5 -25.5 92.5
s-45 51.667 -84 74s-91.833 43.833 -158.5 64.5c-115.333 34 -210.833 71.167 -286.5 111.5s-132.334 88.666 -170.001 144.999s-56.5 124.166 -56.5 203.499c0 78.667 21.833 148.167 65.5 208.5s104.167 107.833 181.5 142.5s166.666 52.667 267.999 54
c112 1.33301 211.167 -12 297.5 -40s160.833 -67 223.5 -117v-328h-219l-38 200c-25.333 16 -59.5 30 -102.5 42s-91.833 18 -146.5 18c-46.667 0 -87.834 -7 -123.501 -21s-63.834 -34.333 -84.501 -61s-31 -59 -31 -97c0 -32.667 9 -61.167 27 -85.5
s48.167 -47.333 90.5 -69s100.833 -44.834 175.5 -69.501c160.667 -44.667 282.5 -103.667 365.5 -177s124.5 -169.666 124.5 -288.999c0 -82.667 -22.333 -154.167 -67 -214.5s-107.334 -106.833 -188.001 -139.5s-175 -49 -283 -49zM984.005 1842v-26l-254 -243h-216
l-253 246v23h228l134 -144l137 144h224z" />
    <glyph glyph-name="scaron" unicode="&#x161;" horiz-adv-x="1034" 
d="M527 -21c-80.667 0 -155.834 7.66797 -225.501 23.001s-136.5 37.333 -200.5 66l-3 306h203l39 -156c22.667 -11.333 47.5 -20.333 74.5 -27s57.833 -10 92.5 -10c65.333 0 111.333 10.667 138 32s40 48 40 80c0 30 -14.167 56.5 -42.5 79.5s-84.833 43.167 -169.5 60.5
c-128 26.667 -222.333 68 -283 124s-91 127.667 -91 215c0 60 15.167 114.667 45.5 164s76.666 89 138.999 119s142.166 45 239.499 45c81.333 0 155.833 -7.83301 223.5 -23.5s124.5 -36.167 170.5 -61.5l3 -296h-202l-31 142c-18 13.333 -39.167 23.333 -63.5 30
s-51.833 10 -82.5 10c-51.333 0 -90.666 -10.333 -117.999 -31s-41 -47.334 -41 -80.001c0 -18.667 4.83301 -36 14.5 -52s28.834 -31 57.501 -45s70.334 -27.333 125.001 -40c134 -30.667 231.667 -71.5 293 -122.5s92 -122.5 92 -214.5c0 -100.667 -36.5 -182 -109.5 -244
s-182.167 -93 -327.5 -93zM878 1560v-26l-254 -243h-216l-253 246v23h228l134 -144l137 144h224z" />
    <glyph glyph-name="uni0162" unicode="&#x162;" horiz-adv-x="1389" 
d="M391 0v175l156 30v1026h-265l-16 -174h-221v399h1299v-399h-222l-16 174h-267v-1026l157 -30v-175h-605zM576 -459l-7 159.999c40 0 71.833 6.5 95.5 19.5s35.5 32.833 35.5 59.5c0 28.667 -11.667 48.5 -35 59.5s-60.333 17.833 -111 20.5l34 158h215l-13 -74
c44.667 -7.33301 82 -24.166 112 -50.499s45 -65.5 45 -117.5c0 -71.333 -32.333 -128.333 -97 -171s-156 -64 -274 -64z" />
    <glyph glyph-name="uni0163" unicode="&#x163;" horiz-adv-x="735" 
d="M488 -21c-100.667 0 -178.168 27.668 -232.501 83.001s-81.5 143 -81.5 263v552h-149v205h149v265h291v-265h199v-205h-199v-551c0 -42 8.83301 -72 26.5 -90s41.834 -27 72.501 -27c16 0 33.333 1.16699 52 3.5s34.667 4.83301 48 7.5l25 -211
c-30 -8.66699 -62.5 -15.834 -97.5 -21.501s-69.5 -8.5 -103.5 -8.5zM254.999 -458.999l-7 159.999c40 0 71.833 6.5 95.5 19.5s35.5 32.833 35.5 59.5c0 28.667 -11.667 48.5 -35 59.5s-60.333 17.833 -111 20.5l34 158h215l-13 -74
c44.667 -7.33301 82 -24.166 112 -50.499s45 -65.5 45 -117.5c0 -71.333 -32.333 -128.333 -97 -171s-156 -64 -274 -64z" />
    <glyph glyph-name="Tcaron" unicode="&#x164;" horiz-adv-x="1389" 
d="M391 0v175l156 30v1026h-265l-16 -174h-221v399h1299v-399h-222l-16 174h-267v-1026l157 -30v-175h-605zM1056 1842v-26l-254 -243h-216l-253 246v23h228l134 -144l137 144h224z" />
    <glyph glyph-name="tcaron" unicode="&#x165;" horiz-adv-x="735" 
d="M488 -21c-100.667 0 -178.168 27.668 -232.501 83.001s-81.5 143 -81.5 263v552h-149v205h149v265h291v-265h199v-205h-199v-551c0 -42 8.83301 -72 26.5 -90s41.834 -27 72.501 -27c16 0 33.333 1.16699 52 3.5s34.667 4.83301 48 7.5l25 -211
c-30 -8.66699 -62.5 -15.834 -97.5 -21.501s-69.5 -8.5 -103.5 -8.5zM672.999 1156l-135 89.001c21.333 32.667 37.5 65.5 48.5 98.5s16.5 73.833 16.5 122.5v94h246v-81c0 -63.333 -16.5 -123.333 -49.5 -180s-75.167 -104.334 -126.5 -143.001z" />
    <glyph glyph-name="Tbar" unicode="&#x166;" horiz-adv-x="1389" 
d="M391 0v175l156 30v1026h-265l-16 -174h-221v399h1299v-399h-222l-16 174h-267v-1026l157 -30v-175h-605zM365 653v155h659v-155h-659z" />
    <glyph glyph-name="tbar" unicode="&#x167;" horiz-adv-x="735" 
d="M488 -21c-100.667 0 -178.168 27.668 -232.501 83.001s-81.5 143 -81.5 263v552h-149v205h149v265h291v-265h199v-205h-199v-551c0 -42 8.83301 -72 26.5 -90s41.834 -27 72.501 -27c16 0 33.333 1.16699 52 3.5s34.667 4.83301 48 7.5l25 -211
c-30 -8.66699 -62.5 -15.834 -97.5 -21.501s-69.5 -8.5 -103.5 -8.5zM13.999 597.001v155h659v-155h-659z" />
    <glyph glyph-name="Utilde" unicode="&#x168;" horiz-adv-x="1555" 
d="M776 -21c-115.333 0 -216.83 20 -304.497 60s-155.834 98 -204.501 174s-73 168.333 -73 277v760l-155 30v176h603v-176l-156 -30v-760c0 -64 11.667 -117.333 35 -160s56.666 -74.5 99.999 -95.5s95 -31.5 155 -31.5c61.333 0 113.833 10.5 157.5 31.5
s77.167 52.833 100.5 95.5s35 96 35 160v760l-155 30v176h603v-176l-156 -30v-760c0 -108.667 -24.5 -201.167 -73.5 -277.5s-117.333 -134.333 -205 -174s-189.834 -59.5 -306.501 -59.5zM554.003 1565l-151 40.001c0 44.667 10.5 86 31.5 124s48.833 68.667 83.5 92
s72.334 35 113.001 35c32 0 65.333 -8 100 -24s67.834 -32.167 99.501 -48.5s58.5 -24.5 80.5 -24.5c27.333 0.666992 49.166 11.167 65.499 31.5s24.5 46.166 24.5 77.499l151 -42c0 -46 -10.5 -87.833 -31.5 -125.5s-48.833 -67.667 -83.5 -90s-72.667 -33.5 -114 -33.5
c-34.667 0 -69.334 8 -104.001 24s-67 32.167 -97 48.5s-56.333 24.5 -79 24.5c-27.333 0 -49 -10.667 -65 -32s-24 -47 -24 -77z" />
    <glyph glyph-name="utilde" unicode="&#x169;" horiz-adv-x="1275" 
d="M522 -21c-114 0 -203.498 36.167 -268.498 108.5s-97.5 184.833 -97.5 337.5v451l-119 30v176h119h292v-659c0 -77.333 13.5 -132.833 40.5 -166.5s67.833 -50.5 122.5 -50.5c43.333 0 81.666 8.5 114.999 25.5s60.666 41.167 81.999 72.5v572l-129 30v176h129h292v-877
l130 -30v-175h-386l-20 137c-34 -50.667 -76.667 -89.667 -128 -117s-109.333 -41 -174 -41zM406.002 1283l-151 40.001c0 44.667 10.5 86 31.5 124s48.833 68.667 83.5 92s72.334 35 113.001 35c32 0 65.333 -8 100 -24s67.834 -32.167 99.501 -48.5s58.5 -24.5 80.5 -24.5
c27.333 0.666992 49.166 11.167 65.499 31.5s24.5 46.166 24.5 77.499l151 -42c0 -46 -10.5 -87.833 -31.5 -125.5s-48.833 -67.667 -83.5 -90s-72.667 -33.5 -114 -33.5c-34.667 0 -69.334 8 -104.001 24s-67 32.167 -97 48.5s-56.333 24.5 -79 24.5
c-27.333 0 -49 -10.667 -65 -32s-24 -47 -24 -77z" />
    <glyph glyph-name="Umacron" unicode="&#x16a;" horiz-adv-x="1555" 
d="M776 -21c-115.333 0 -216.83 20 -304.497 60s-155.834 98 -204.501 174s-73 168.333 -73 277v760l-155 30v176h603v-176l-156 -30v-760c0 -64 11.667 -117.333 35 -160s56.666 -74.5 99.999 -95.5s95 -31.5 155 -31.5c61.333 0 113.833 10.5 157.5 31.5
s77.167 52.833 100.5 95.5s35 96 35 160v760l-155 30v176h603v-176l-156 -30v-760c0 -108.667 -24.5 -201.167 -73.5 -277.5s-117.333 -134.333 -205 -174s-189.834 -59.5 -306.501 -59.5zM412.003 1594v176h731v-176h-731z" />
    <glyph glyph-name="umacron" unicode="&#x16b;" horiz-adv-x="1275" 
d="M522 -21c-114 0 -203.498 36.167 -268.498 108.5s-97.5 184.833 -97.5 337.5v451l-119 30v176h119h292v-659c0 -77.333 13.5 -132.833 40.5 -166.5s67.833 -50.5 122.5 -50.5c43.333 0 81.666 8.5 114.999 25.5s60.666 41.167 81.999 72.5v572l-129 30v176h129h292v-877
l130 -30v-175h-386l-20 137c-34 -50.667 -76.667 -89.667 -128 -117s-109.333 -41 -174 -41zM264.002 1312v176h731v-176h-731z" />
    <glyph glyph-name="Ubreve" unicode="&#x16c;" horiz-adv-x="1555" 
d="M776 -21c-115.333 0 -216.83 20 -304.497 60s-155.834 98 -204.501 174s-73 168.333 -73 277v760l-155 30v176h603v-176l-156 -30v-760c0 -64 11.667 -117.333 35 -160s56.666 -74.5 99.999 -95.5s95 -31.5 155 -31.5c61.333 0 113.833 10.5 157.5 31.5
s77.167 52.833 100.5 95.5s35 96 35 160v760l-155 30v176h603v-176l-156 -30v-760c0 -108.667 -24.5 -201.167 -73.5 -277.5s-117.333 -134.333 -205 -174s-189.834 -59.5 -306.501 -59.5zM778.003 1545c-107.333 0 -192.668 27.167 -256.001 81.5
s-93.666 124.166 -90.999 209.499l2 6h198c0 -38.667 11.833 -70.667 35.5 -96s60.834 -38 111.501 -38c50 0 86.667 12.333 110 37s35 57 35 97h200l2 -6c1.33301 -85.333 -29.334 -155.166 -92.001 -209.499s-147.667 -81.5 -255 -81.5z" />
    <glyph glyph-name="ubreve" unicode="&#x16d;" horiz-adv-x="1275" 
d="M522 -21c-114 0 -203.498 36.167 -268.498 108.5s-97.5 184.833 -97.5 337.5v451l-119 30v176h119h292v-659c0 -77.333 13.5 -132.833 40.5 -166.5s67.833 -50.5 122.5 -50.5c43.333 0 81.666 8.5 114.999 25.5s60.666 41.167 81.999 72.5v572l-129 30v176h129h292v-877
l130 -30v-175h-386l-20 137c-34 -50.667 -76.667 -89.667 -128 -117s-109.333 -41 -174 -41zM630.002 1263c-107.333 0 -192.668 27.167 -256.001 81.5s-93.666 124.166 -90.999 209.499l2 6h198c0 -38.667 11.833 -70.667 35.5 -96s60.834 -38 111.501 -38
c50 0 86.667 12.333 110 37s35 57 35 97h200l2 -6c1.33301 -85.333 -29.334 -155.166 -92.001 -209.499s-147.667 -81.5 -255 -81.5z" />
    <glyph glyph-name="Uring" unicode="&#x16e;" horiz-adv-x="1555" 
d="M776 -21c-115.333 0 -216.83 20 -304.497 60s-155.834 98 -204.501 174s-73 168.333 -73 277v760l-155 30v176h603v-176l-156 -30v-760c0 -64 11.667 -117.333 35 -160s56.666 -74.5 99.999 -95.5s95 -31.5 155 -31.5c61.333 0 113.833 10.5 157.5 31.5
s77.167 52.833 100.5 95.5s35 96 35 160v760l-155 30v176h603v-176l-156 -30v-760c0 -108.667 -24.5 -201.167 -73.5 -277.5s-117.333 -134.333 -205 -174s-189.834 -59.5 -306.501 -59.5zM780.003 1510c-66.667 0 -122.5 20 -167.5 60s-67.5 91.333 -67.5 154
c0 62 22.667 114 68 156s101 63 167 63c64.667 0 119.167 -21 163.5 -63s66.5 -94 66.5 -156c0 -62.667 -22.167 -114 -66.5 -154s-98.833 -60 -163.5 -60zM780.003 1627c27.333 0 49.5 9 66.5 27s25.5 41.333 25.5 70c0 29.333 -8.5 53.166 -25.5 71.499
s-39.167 27.5 -66.5 27.5c-28 0 -51.167 -9.16699 -69.5 -27.5s-27.5 -42.166 -27.5 -71.499c0 -28.667 9.16699 -52 27.5 -70s41.5 -27 69.5 -27z" />
    <glyph glyph-name="uring" unicode="&#x16f;" horiz-adv-x="1275" 
d="M522 -21c-114 0 -203.498 36.167 -268.498 108.5s-97.5 184.833 -97.5 337.5v451l-119 30v176h119h292v-659c0 -77.333 13.5 -132.833 40.5 -166.5s67.833 -50.5 122.5 -50.5c43.333 0 81.666 8.5 114.999 25.5s60.666 41.167 81.999 72.5v572l-129 30v176h129h292v-877
l130 -30v-175h-386l-20 137c-34 -50.667 -76.667 -89.667 -128 -117s-109.333 -41 -174 -41zM632.002 1228c-66.667 0 -122.5 20 -167.5 60s-67.5 91.333 -67.5 154c0 62 22.667 114 68 156s101 63 167 63c64.667 0 119.167 -21 163.5 -63s66.5 -94 66.5 -156
c0 -62.667 -22.167 -114 -66.5 -154s-98.833 -60 -163.5 -60zM632.002 1345c27.333 0 49.5 9 66.5 27s25.5 41.333 25.5 70c0 29.333 -8.5 53.166 -25.5 71.499s-39.167 27.5 -66.5 27.5c-28 0 -51.167 -9.16699 -69.5 -27.5s-27.5 -42.166 -27.5 -71.499
c0 -28.667 9.16699 -52 27.5 -70s41.5 -27 69.5 -27z" />
    <glyph glyph-name="Uhungarumlaut" unicode="&#x170;" horiz-adv-x="1555" 
d="M776 -21c-115.333 0 -216.83 20 -304.497 60s-155.834 98 -204.501 174s-73 168.333 -73 277v760l-155 30v176h603v-176l-156 -30v-760c0 -64 11.667 -117.333 35 -160s56.666 -74.5 99.999 -95.5s95 -31.5 155 -31.5c61.333 0 113.833 10.5 157.5 31.5
s77.167 52.833 100.5 95.5s35 96 35 160v760l-155 30v176h603v-176l-156 -30v-760c0 -108.667 -24.5 -201.167 -73.5 -277.5s-117.333 -134.333 -205 -174s-189.834 -59.5 -306.501 -59.5zM767.003 1569l-2 5l240 268h277l2 -6l-293 -267h-224zM428.003 1569h-7l199 273h260
l2 -5l-240 -268h-214z" />
    <glyph glyph-name="uhungarumlaut" unicode="&#x171;" horiz-adv-x="1275" 
d="M522 -21c-114 0 -203.498 36.167 -268.498 108.5s-97.5 184.833 -97.5 337.5v451l-119 30v176h119h292v-659c0 -77.333 13.5 -132.833 40.5 -166.5s67.833 -50.5 122.5 -50.5c43.333 0 81.666 8.5 114.999 25.5s60.666 41.167 81.999 72.5v572l-129 30v176h129h292v-877
l130 -30v-175h-386l-20 137c-34 -50.667 -76.667 -89.667 -128 -117s-109.333 -41 -174 -41zM618.002 1287l-2 5l240 268h277l2 -6l-293 -267h-224zM279.002 1287h-7l199 273h260l2 -5l-240 -268h-214z" />
    <glyph glyph-name="Uogonek" unicode="&#x172;" horiz-adv-x="1555" 
d="M776 -21c-115.333 0 -216.83 20 -304.497 60s-155.834 98 -204.501 174s-73 168.333 -73 277v760l-155 30v176h603v-176l-156 -30v-760c0 -64 11.667 -117.333 35 -160s56.666 -74.5 99.999 -95.5s95 -31.5 155 -31.5c61.333 0 113.833 10.5 157.5 31.5
s77.167 52.833 100.5 95.5s35 96 35 160v760l-155 30v176h603v-176l-156 -30v-760c0 -108.667 -24.5 -201.167 -73.5 -277.5s-117.333 -134.333 -205 -174s-189.834 -59.5 -306.501 -59.5zM841.003 -424c-75.333 0 -136.5 19.167 -183.5 57.5s-70.5 91.833 -70.5 160.5
c0 50 17.833 98.833 53.5 146.5s95.5 87.5 179.5 119.5l125 -60c-48.667 -30 -84 -58.333 -106 -85s-33 -55 -33 -85c0 -25.333 7 -44.333 21 -57s36 -19 66 -19c16 0 30.667 1.5 44 4.5s26.666 6.83301 39.999 11.5l35 -154c-23.333 -11.333 -48.666 -20.833 -75.999 -28.5
s-59 -11.5 -95 -11.5z" />
    <glyph glyph-name="uogonek" unicode="&#x173;" horiz-adv-x="1275" 
d="M522 -21c-114 0 -203.498 36.167 -268.498 108.5s-97.5 184.833 -97.5 337.5v451l-119 30v176h119h292v-659c0 -77.333 13.5 -132.833 40.5 -166.5s67.833 -50.5 122.5 -50.5c43.333 0 81.666 8.5 114.999 25.5s60.666 41.167 81.999 72.5v572l-129 30v176h129h292v-877
l130 -30v-175h-386l-20 137c-34 -50.667 -76.667 -89.667 -128 -117s-109.333 -41 -174 -41zM1126 -424c-75.333 0 -136.5 19.167 -183.5 57.5s-70.5 91.833 -70.5 160.5c0 50 17.833 98.833 53.5 146.5s95.5 87.5 179.5 119.5l125 -60c-48.667 -30 -84 -58.333 -106 -85
s-33 -55 -33 -85c0 -25.333 7 -44.333 21 -57s36 -19 66 -19c16 0 30.667 1.5 44 4.5s26.666 6.83301 39.999 11.5l35 -154c-23.333 -11.333 -48.666 -20.833 -75.999 -28.5s-59 -11.5 -95 -11.5z" />
    <glyph glyph-name="Wcircumflex" unicode="&#x174;" horiz-adv-x="2202" 
d="M521 0l-338 1265l-149 15v176h586v-176l-157 -23l171 -708l31 -130h6l37 130l288 907h215l299 -932l35 -115h6l30 115l177 733l-166 23v176h575v-176l-139 -15l-342 -1265h-264l-276 851l-35 120h-6l-39 -124l-279 -847h-266zM739 1573v26l255 243h215l253 -246v-23h-228
l-133 144l-137 -144h-225z" />
    <glyph glyph-name="wcircumflex" unicode="&#x175;" horiz-adv-x="1822" 
d="M417 0l-252 882l-132 24v176h523v-175l-114 -22l100 -421l20 -83h6l27 83l222 618h196l215 -626l28 -88h6l26 88l118 428l-126 23v175h512v-176l-126 -24l-275 -882h-246l-198 536l-35 119h-6l-35 -120l-195 -535h-259zM549 1291v26l255 243h215l253 -246v-23h-228
l-133 144l-137 -144h-225z" />
    <glyph glyph-name="Ycircumflex" unicode="&#x176;" horiz-adv-x="1508" 
d="M452 0v175l156 30v294l-432 761l-140 20v176h581v-176l-119 -17l242 -465l22 -47l6 1l22 44l269 467l-160 17v176h570v-176l-144 -20l-426 -738v-317l156 -30v-175h-603zM393 1573v26l255 243h215l253 -246v-23h-228l-133 144l-137 -144h-225z" />
    <glyph glyph-name="ycircumflex" unicode="&#x177;" horiz-adv-x="1285" 
d="M363 -437c-25.333 0 -52.167 2.16797 -80.5 6.50098s-55.166 10.166 -80.499 17.499l33 214c12.667 -2.66699 26.667 -4.66699 42 -6s28.666 -2 39.999 -2c42 0 78.333 11 109 33s53 53.667 67 95l24 67l-362 899l-133 19v176h574v-176l-132 -20l170 -477l21 -59h6
l201 538l-129 18v176h535v-176l-122 -17l-413 -1050c-20 -50 -45.5 -95.833 -76.5 -137.5s-70.333 -75.167 -118 -100.5s-106.167 -38 -175.5 -38zM284.999 1291v26l255 243h215l253 -246v-23h-228l-133 144l-137 -144h-225z" />
    <glyph glyph-name="Ydieresis" unicode="&#x178;" horiz-adv-x="1508" 
d="M452 0v175l156 30v294l-432 761l-140 20v176h581v-176l-119 -17l242 -465l22 -47l6 1l22 44l269 467l-160 17v176h570v-176l-144 -20l-426 -738v-317l156 -30v-175h-603zM839 1593v249h281v-249h-281zM388 1593v249h281v-249h-281z" />
    <glyph glyph-name="Zacute" unicode="&#x179;" horiz-adv-x="1226" 
d="M74 0v192l710 1039h-443l-23 -186h-223l12 411h1036v-186l-713 -1046h507l24 186h222l-18 -410h-1091zM433 1569l199 273h309l2 -6l-276 -267h-226h-8z" />
    <glyph glyph-name="zacute" unicode="&#x17a;" horiz-adv-x="1107" 
d="M88 0v172l563 706h-292l-33 -185h-214v389h889v-187l-531 -686h306l43 199h205v-408h-936zM379 1287l199 273h309l2 -6l-276 -267h-226h-8z" />
    <glyph glyph-name="Zdotaccent" unicode="&#x17b;" horiz-adv-x="1226" 
d="M74 0v192l710 1039h-443l-23 -186h-223l12 411h1036v-186l-713 -1046h507l24 186h222l-18 -410h-1091zM456 1593v249h302v-249h-302z" />
    <glyph glyph-name="zdotaccent" unicode="&#x17c;" horiz-adv-x="1107" 
d="M88 0v172l563 706h-292l-33 -185h-214v389h889v-187l-531 -686h306l43 199h205v-408h-936zM402 1311v249h302v-249h-302z" />
    <glyph glyph-name="Zcaron" unicode="&#x17d;" horiz-adv-x="1226" 
d="M74 0v192l710 1039h-443l-23 -186h-223l12 411h1036v-186l-713 -1046h507l24 186h222l-18 -410h-1091zM969 1842v-26l-254 -243h-216l-253 246v23h228l134 -144l137 144h224z" />
    <glyph glyph-name="zcaron" unicode="&#x17e;" horiz-adv-x="1107" 
d="M88 0v172l563 706h-292l-33 -185h-214v389h889v-187l-531 -686h306l43 199h205v-408h-936zM915 1560v-26l-254 -243h-216l-253 246v23h228l134 -144l137 144h224z" />
    <glyph glyph-name="longs" unicode="&#x17f;" horiz-adv-x="753" 
d="M44 0l0.000976562 175.001l140 30v997c0 121.333 35.167 214.833 105.5 280.5s167.166 98.5 290.499 98.5c28 0 55.5 -1.83301 82.5 -5.5s54.167 -8.83398 81.5 -15.501l-24 -215c-16.667 4 -32.667 6.83301 -48 8.5s-30.666 2.5 -45.999 2.5
c-48.667 0 -85.834 -13.5 -111.501 -40.5s-38.5 -64.833 -38.5 -113.5v-997l155 -30v-175h-587z" />
    <glyph glyph-name="uni018F" unicode="&#x18f;" horiz-adv-x="1400" 
d="M699 -21c-135.333 0 -250 27.333 -344 82s-165.167 132.834 -213.5 234.501s-72.5 223.167 -72.5 364.5v150h948l3 24c1.33301 77.333 -12.167 146.166 -40.5 206.499s-72.666 107.833 -132.999 142.5s-137.833 52 -232.5 52c-79.333 0 -150.333 -6.5 -213 -19.5
s-119.667 -28.5 -171 -46.5l-49 225c36.667 18.667 92.167 37.167 166.5 55.5s163.166 27.5 266.499 27.5c150 0 277.333 -27.833 382 -83.5s184.167 -133.667 238.5 -234s81.5 -217.833 81.5 -352.5v-162c0 -130 -27.167 -245.167 -81.5 -345.5s-128 -179 -221 -236
s-197.833 -85.167 -314.5 -84.5zM699 220c64 0 118.998 15.667 164.998 47s82 74.333 108 129s41 117.667 45 189l-2 5h-654v-31c0 -68 11.833 -127.5 35.5 -178.5s60.334 -90.5 110.001 -118.5s113.834 -42 192.501 -42z" />
    <glyph glyph-name="florin" unicode="&#x192;" horiz-adv-x="797" 
d="M118 -437c-21.333 0 -42.833 1.33203 -64.5 3.99902s-45.834 7 -72.501 13l15 221c14 -4 29.833 -7.16699 47.5 -9.5s33.167 -3.5 46.5 -3.5c40 0 70.667 15 92 45s32 72.333 32 127v917h-160v205h160v120c0 121.333 35.5 214.833 106.5 280.5s168.167 98.5 291.5 98.5
c26.667 0 52.834 -1.66699 78.501 -5s53.834 -8.66602 84.501 -15.999l-25 -217c-14.667 2.66699 -30.167 5 -46.5 7s-32.833 3 -49.5 3c-48.667 0 -85.334 -13 -110.001 -39s-37 -63.333 -37 -112v-120h207v-205h-207l-1 -917c0 -126.667 -33.667 -224.5 -101 -293.5
s-163 -103.5 -287 -103.5z" />
    <glyph glyph-name="Ohorn" unicode="&#x1a0;" horiz-adv-x="1446" 
d="M723 -21c-98 0 -187.334 18.333 -268.001 55s-150.167 88.167 -208.5 154.5s-103.166 144.333 -134.499 234s-47 187.834 -47 294.501v22c0 106 15.667 203.833 47 293.5s76 167.834 134 234.501s127.333 118.334 208 155.001s170 55 268 55
c98.667 0 188.667 -18.333 270 -55s151.333 -88.334 210 -155.001s103.834 -144.834 135.501 -234.501s47.5 -187.5 47.5 -293.5v-22c0 -106.667 -15.833 -204.834 -47.5 -294.501s-76.834 -167.667 -135.501 -234s-128.5 -117.833 -209.5 -154.5s-170.833 -55 -269.5 -55z
M722.999 206c82.667 0 151.333 21.333 206 64s95.834 102.334 123.501 179.001s41.5 166 41.5 268v24c0 100.667 -14 189.167 -42 265.5s-69.5 135.833 -124.5 178.5s-123.5 64 -205.5 64c-81.333 0 -149 -21.167 -203 -63.5s-94.5 -101.5 -121.5 -177.5
s-40.5 -165 -40.5 -267v-24c0 -102 13.5 -191.333 40.5 -268s67.667 -136.334 122 -179.001s122.166 -64 203.499 -64zM1066 1150l0.000976562 159c63.333 0 106.166 21.833 128.499 65.5s33.166 108.834 32.499 195.501h232c0 -88.667 -14.167 -164.334 -42.5 -227.001
s-71.666 -110.5 -129.999 -143.5s-131.833 -49.5 -220.5 -49.5z" />
    <glyph glyph-name="ohorn" unicode="&#x1a1;" horiz-adv-x="1202" 
d="M579 -21c-106.667 0 -198.332 23.333 -274.999 70s-135.334 111.5 -176.001 194.5s-61 178.5 -61 286.5v21c0 107.333 20.333 202.5 61 285.5s99.167 148 175.5 195s167.5 70.5 273.5 70.5c107.333 0 199 -23.5 275 -70.5s134.333 -111.833 175 -194.5s61 -178 61 -286
v-21c0 -108 -20.333 -203.5 -61 -286.5s-99 -147.833 -175 -194.5s-167 -70 -273 -70zM579.002 203c50.667 0 91.998 13.666 123.998 40.999s55.667 65.5 71 114.5s23 106.167 23 171.5v21c0 64 -7.66699 120.5 -23 169.5s-39.166 87.333 -71.499 115
s-74.166 41.5 -125.499 41.5c-50 0 -91.333 -13.833 -124 -41.5s-56.5 -66 -71.5 -115s-22.5 -105.5 -22.5 -169.5v-21c0 -65.333 7.5 -122.666 22.5 -171.999s38.833 -87.5 71.5 -114.5s74.667 -40.5 126 -40.5zM848 808.999v139.998c41.333 0 72.833 9.83301 94.5 29.5
s36.667 47.334 45 83.001s12.5 76.834 12.5 123.501h198c0 -73.333 -11.5 -138.333 -34.5 -195s-60 -101 -111 -133s-119.167 -48 -204.5 -48z" />
    <glyph glyph-name="Uhorn" unicode="&#x1af;" horiz-adv-x="1774" 
d="M777 -21c-116 0 -217.832 19.833 -305.499 59.5s-155.834 97.667 -204.501 174s-73 168.833 -73 277.5v760l-155 30v176h603v-176l-155 -30v-760c0 -64 11.667 -117.333 35 -160s56.666 -74.5 99.999 -95.5s95 -31.5 155 -31.5c60.667 0 112.834 10.5 156.501 31.5
s77.167 52.833 100.5 95.5s35 96 35 160v760l-155 30v176h449v-966c0 -108.667 -24.667 -201.167 -74 -277.5s-118 -134.333 -206 -174s-190 -59.5 -306 -59.5zM1331 1021l5 185.002c75.333 -2 125 19.667 149 65s36 119 36 221h234v-5
c2 -152.667 -29 -267.834 -93 -345.501s-174.333 -117.834 -331 -120.501z" />
    <glyph glyph-name="uhorn" unicode="&#x1b0;" horiz-adv-x="1390" 
d="M522 -21c-114 0 -203.498 36.167 -268.498 108.5s-97.5 184.833 -97.5 337.5v451l-119 30v176h119h292v-659c0 -77.333 13.5 -132.833 40.5 -166.5s67.833 -50.5 122.5 -50.5c43.333 0 81.666 8.5 114.999 25.5s60.666 41.167 81.999 72.5v572l-129 30v176h129h292v-877
l130 -30v-175h-386l-20 137c-34 -50.667 -76.667 -89.667 -128 -117s-109.333 -41 -174 -41zM1050 809v139.998c41.333 0 72.833 9.83301 94.5 29.5s36.667 47.334 45 83.001s12.5 76.834 12.5 123.501h198c0 -73.333 -11.5 -138.333 -34.5 -195s-60 -101 -111 -133
s-119.167 -48 -204.5 -48z" />
    <glyph glyph-name="uni01F0" unicode="&#x1f0;" horiz-adv-x="600" 
d="M105 -437c-27.333 0 -52.167 1.33301 -74.5 4s-45.5 7 -69.5 13l15 221c14.667 -4 30.167 -7.16699 46.5 -9.5s33.5 -3.5 51.5 -3.5c38 0 67.667 15 89 45s32 72.333 32 127v916l-156 30v176h447v-1122c0 -127.333 -33.5 -225.333 -100.5 -294s-160.5 -103 -280.5 -103z
M693.999 1560v-26l-254 -243h-216l-253 246v23h228l134 -144l137 144h224z" />
    <glyph glyph-name="Aringacute" unicode="&#x1fa;" horiz-adv-x="1512" 
d="M41 0v175l104 15l463 1266h299l460 -1266l104 -15v-175h-496v175l101 18l-64 200h-512l-64 -200l101 -18v-175h-496zM569 608h374l-170 499l-14 44h-6l-15 -47zM759 1341c-66 0 -121.167 19.667 -165.5 59s-66.5 89.666 -66.5 150.999c0 60 22.333 110.5 67 151.5
s99.667 61.5 165 61.5c64.667 0 118.834 -20.5 162.501 -61.5s65.5 -91.5 65.5 -151.5c0 -61.333 -21.833 -111.666 -65.5 -150.999s-97.834 -59 -162.501 -59zM759 1458c26.667 0 48.333 8.49902 65 25.499s25 39.5 25 67.5c0 27.333 -8 49.833 -24 67.5s-38 26.5 -66 26.5
c-27.333 0 -49.833 -8.83301 -67.5 -26.5s-26.5 -40.167 -26.5 -67.5s9 -49.666 27 -66.999s40.333 -26 67 -26zM657.999 1819l126 212h252l2 -6l-202 -206h-170h-8z" />
    <glyph glyph-name="aringacute" unicode="&#x1fb;" horiz-adv-x="1154" 
d="M425 -21c-107.333 0 -192.669 28.834 -256.002 86.501s-95 136.167 -95 235.5c0 68 18.5 127.667 55.5 179s91.667 91.666 164 120.999s161.5 44 267.5 44h143v80c0 52 -15.167 94.167 -45.5 126.5s-75.833 48.5 -136.5 48.5c-31.333 0 -59.5 -3.83301 -84.5 -11.5
s-47.5 -18.5 -67.5 -32.5l-23 -143h-210l-4 281c56.667 32 118 58 184 78s139.667 30 221 30c141.333 0 253 -32.833 335 -98.5s123 -159.5 123 -281.5v-446c0 -14.667 0.166992 -29.167 0.5 -43.5s1.5 -28.166 3.5 -41.499l113 -16v-175h-362
c-7.33301 18.667 -14.666 38.667 -21.999 60s-12.666 42.666 -15.999 63.999c-34.667 -44 -75.5 -79.167 -122.5 -105.5s-102.167 -39.5 -165.5 -39.5zM502.997 195.001c40.667 0 79.334 9.16602 116.001 27.499s65 42.5 85 72.5v171h-144c-64 0 -112.5 -14.667 -145.5 -44
s-49.5 -64.666 -49.5 -105.999c0 -38.667 12.167 -68.5 36.5 -89.5s58.166 -31.5 101.499 -31.5zM547.997 1047c-66 0 -121.167 19.667 -165.5 59s-66.5 89.666 -66.5 150.999c0 60 22.333 110.5 67 151.5s99.667 61.5 165 61.5c64.667 0 118.834 -20.5 162.501 -61.5
s65.5 -91.5 65.5 -151.5c0 -61.333 -21.833 -111.666 -65.5 -150.999s-97.834 -59 -162.501 -59zM547.997 1165c26.667 0 48.333 8.5 65 25.5s25 39.167 25 66.5c0 28 -8 50.667 -24 68s-38 26 -66 26c-27.333 0 -49.833 -8.66699 -67.5 -26s-26.5 -40 -26.5 -68
c0 -27.333 9 -49.5 27 -66.5s40.333 -25.5 67 -25.5zM446.996 1525l126 212h252l2 -6l-202 -206h-170h-8z" />
    <glyph glyph-name="AEacute" unicode="&#x1fc;" horiz-adv-x="2092" 
d="M66 0v175l139 20l700 1261h1036v-369h-224l-12 141h-379l16 -366h516v-227h-507l18 -408h398l13 141h223v-368h-1075v175l150 28l-6 151h-448l-87 -165l86 -14v-175h-557zM740 582h322l-24 554l-5 1l-10 -21zM978 1569l199 273h309l2 -6l-276 -267h-226h-8z" />
    <glyph glyph-name="aeacute" unicode="&#x1fd;" horiz-adv-x="1720" 
d="M448 -21c-118.667 0 -210.67 29.167 -276.003 87.5s-98 137.5 -98 237.5c0 67.333 18.5 126.833 55.5 178.5s91.667 92 164 121s161.5 43.5 267.5 43.5h144v78c0 52 -15.333 94.167 -46 126.5s-76 48.5 -136 48.5c-31.333 0 -59.5 -3.83301 -84.5 -11.5
s-47.833 -18.5 -68.5 -32.5l-22 -143h-211l-3 281c56.667 32 118 58 184 78s139.667 30 221 30c73.333 0 138.333 -11.333 195 -34s102.667 -57.334 138 -104.001c28.667 30.667 59.5 56.167 92.5 76.5s68.833 35.666 107.5 45.999s79.334 15.5 122.001 15.5
c94.667 0 175.834 -19.833 243.501 -59.5s119.667 -96.167 156 -169.5s54.5 -160.333 54.5 -261v-158h-650l-2 -6c2.66699 -74 25 -133.333 67 -178s105 -67 189 -67c59.333 0 109.5 6.83301 150.5 20.5s87.5 33.834 139.5 60.501l77 -184
c-41.333 -32 -97.666 -60.167 -168.999 -84.5s-149 -36.5 -233 -36.5c-167.333 0 -297.333 55 -390 165c-48 -53.333 -103 -94.166 -165 -122.499s-133.333 -42.5 -214 -42.5zM503.997 195c28.667 0 57.001 5.16699 85.001 15.5s53.667 24.5 77 42.5s42.333 38.667 57 62
c-6.66699 26 -11.334 51 -14.001 75s-4 47.667 -4 71v7h-144c-64 0 -112.667 -14.5 -146 -43.5s-50 -64.167 -50 -105.5c0 -36.667 12.167 -66.5 36.5 -89.5s58.5 -34.5 102.5 -34.5zM998.998 644h363v28c0 62.667 -15 112.5 -45 149.5s-73.667 55.5 -131 55.5
c-36.667 0 -68.5 -9.33301 -95.5 -28s-48.5 -45 -64.5 -79s-25.667 -74.333 -29 -121zM698.998 1287l199 273h309l2 -6l-276 -267h-226h-8z" />
    <glyph glyph-name="Oslashacute" unicode="&#x1fe;" horiz-adv-x="1446" 
d="M723 -21c-98 0 -187.334 18.333 -268.001 55s-150.167 88.167 -208.5 154.5s-103.166 144.333 -134.499 234s-47 187.834 -47 294.501v22c0 106 15.667 203.833 47 293.5s76 167.834 134 234.501s127.333 118.334 208 155.001s170 55 268 55
c98.667 0 188.667 -18.333 270 -55s151.333 -88.334 210 -155.001s103.834 -144.834 135.501 -234.501s47.5 -187.5 47.5 -293.5v-22c0 -106.667 -15.833 -204.834 -47.5 -294.501s-76.834 -167.667 -135.501 -234s-128.5 -117.833 -209.5 -154.5s-170.833 -55 -269.5 -55z
M722.999 206c82.667 0 151.333 21.333 206 64s95.834 102.334 123.501 179.001s41.5 166 41.5 268v24c0 100.667 -14 189.167 -42 265.5s-69.5 135.833 -124.5 178.5s-123.5 64 -205.5 64c-81.333 0 -149 -21.167 -203 -63.5s-94.5 -101.5 -121.5 -177.5
s-40.5 -165 -40.5 -267v-24c0 -102 13.5 -191.333 40.5 -268s67.667 -136.334 122 -179.001s122.166 -64 203.499 -64zM163.998 -85l940 1613h179l-940 -1613h-179zM548.998 1569l199 273h309l2 -6l-276 -267h-226h-8z" />
    <glyph glyph-name="oslashacute" unicode="&#x1ff;" horiz-adv-x="1155" 
d="M579 -21c-106.667 0 -198.332 23.333 -274.999 70s-135.334 111.5 -176.001 194.5s-61 178.5 -61 286.5v21c0 107.333 20.333 202.5 61 285.5s99.167 148 175.5 195s167.5 70.5 273.5 70.5c107.333 0 199 -23.5 275 -70.5s134.333 -111.833 175 -194.5s61 -178 61 -286
v-21c0 -108 -20.333 -203.5 -61 -286.5s-99 -147.833 -175 -194.5s-167 -70 -273 -70zM579.002 203c50.667 0 91.998 13.666 123.998 40.999s55.667 65.5 71 114.5s23 106.167 23 171.5v21c0 64 -7.66699 120.5 -23 169.5s-39.166 87.333 -71.499 115
s-74.166 41.5 -125.499 41.5c-50 0 -91.333 -13.833 -124 -41.5s-56.5 -66 -71.5 -115s-22.5 -105.5 -22.5 -169.5v-21c0 -65.333 7.5 -122.666 22.5 -171.999s38.833 -87.5 71.5 -114.5s74.667 -40.5 126 -40.5zM165 -137.001l663 1356h162l-663 -1356h-162zM403 1287
l199 273h309l2 -6l-276 -267h-226h-8z" />
    <glyph glyph-name="uni0218" unicode="&#x218;" horiz-adv-x="1247" 
d="M650 -21c-107.333 0 -204.995 12.002 -292.995 36.002s-174.667 65.667 -260 125v352h226l31 -207c30 -25.333 71.333 -45.833 124 -61.5s110 -23.5 172 -23.5c52.667 0 97.167 7.33301 133.5 22s64 35.5 83 62.5s28.5 58.833 28.5 95.5c0 34.667 -8.5 65.5 -25.5 92.5
s-45 51.667 -84 74s-91.833 43.833 -158.5 64.5c-115.333 34 -210.833 71.167 -286.5 111.5s-132.334 88.666 -170.001 144.999s-56.5 124.166 -56.5 203.499c0 78.667 21.833 148.167 65.5 208.5s104.167 107.833 181.5 142.5s166.666 52.667 267.999 54
c112 1.33301 211.167 -12 297.5 -40s160.833 -67 223.5 -117v-328h-219l-38 200c-25.333 16 -59.5 30 -102.5 42s-91.833 18 -146.5 18c-46.667 0 -87.834 -7 -123.501 -21s-63.834 -34.333 -84.501 -61s-31 -59 -31 -97c0 -32.667 9 -61.167 27 -85.5
s48.167 -47.333 90.5 -69s100.833 -44.834 175.5 -69.501c160.667 -44.667 282.5 -103.667 365.5 -177s124.5 -169.666 124.5 -288.999c0 -82.667 -22.333 -154.167 -67 -214.5s-107.334 -106.833 -188.001 -139.5s-175 -49 -283 -49zM581.005 -531.998l-135 89.001
c21.333 32.667 37.5 65.5 48.5 98.5s16.5 73.833 16.5 122.5v94h246v-81c0 -63.333 -16.5 -123.333 -49.5 -180s-75.167 -104.334 -126.5 -143.001z" />
    <glyph glyph-name="uni0219" unicode="&#x219;" horiz-adv-x="1034" 
d="M527 -21c-80.667 0 -155.834 7.66797 -225.501 23.001s-136.5 37.333 -200.5 66l-3 306h203l39 -156c22.667 -11.333 47.5 -20.333 74.5 -27s57.833 -10 92.5 -10c65.333 0 111.333 10.667 138 32s40 48 40 80c0 30 -14.167 56.5 -42.5 79.5s-84.833 43.167 -169.5 60.5
c-128 26.667 -222.333 68 -283 124s-91 127.667 -91 215c0 60 15.167 114.667 45.5 164s76.666 89 138.999 119s142.166 45 239.499 45c81.333 0 155.833 -7.83301 223.5 -23.5s124.5 -36.167 170.5 -61.5l3 -296h-202l-31 142c-18 13.333 -39.167 23.333 -63.5 30
s-51.833 10 -82.5 10c-51.333 0 -90.666 -10.333 -117.999 -31s-41 -47.334 -41 -80.001c0 -18.667 4.83301 -36 14.5 -52s28.834 -31 57.501 -45s70.334 -27.333 125.001 -40c134 -30.667 231.667 -71.5 293 -122.5s92 -122.5 92 -214.5c0 -100.667 -36.5 -182 -109.5 -244
s-182.167 -93 -327.5 -93zM474 -531.999l-135 89.001c21.333 32.667 37.5 65.5 48.5 98.5s16.5 73.833 16.5 122.5v94h246v-81c0 -63.333 -16.5 -123.333 -49.5 -180s-75.167 -104.334 -126.5 -143.001z" />
    <glyph glyph-name="uni021A" unicode="&#x21a;" horiz-adv-x="1389" 
d="M391 0v175l156 30v1026h-265l-16 -174h-221v399h1299v-399h-222l-16 174h-267v-1026l157 -30v-175h-605zM652 -532l-135 89.001c21.333 32.667 37.5 65.5 48.5 98.5s16.5 73.833 16.5 122.5v94h246v-81c0 -63.333 -16.5 -123.333 -49.5 -180
s-75.167 -104.334 -126.5 -143.001z" />
    <glyph glyph-name="uni021B" unicode="&#x21b;" horiz-adv-x="735" 
d="M488 -21c-100.667 0 -178.168 27.668 -232.501 83.001s-81.5 143 -81.5 263v552h-149v205h149v265h291v-265h199v-205h-199v-551c0 -42 8.83301 -72 26.5 -90s41.834 -27 72.501 -27c16 0 33.333 1.16699 52 3.5s34.667 4.83301 48 7.5l25 -211
c-30 -8.66699 -62.5 -15.834 -97.5 -21.501s-69.5 -8.5 -103.5 -8.5zM329.999 -531.999l-135 89.001c21.333 32.667 37.5 65.5 48.5 98.5s16.5 73.833 16.5 122.5v94h246v-81c0 -63.333 -16.5 -123.333 -49.5 -180s-75.167 -104.334 -126.5 -143.001z" />
    <glyph glyph-name="uni0237" unicode="&#x237;" horiz-adv-x="600" 
d="M105 -437c-27.333 0 -52.167 1.33301 -74.5 4s-45.5 7 -69.5 13l15 221c14.667 -4 30.167 -7.16699 46.5 -9.5s33.5 -3.5 51.5 -3.5c38 0 67.667 15 89 45s32 72.333 32 127v916l-156 30v176h447v-1122c0 -127.333 -33.5 -225.333 -100.5 -294s-160.5 -103 -280.5 -103z
" />
    <glyph glyph-name="uni0259" unicode="&#x259;" horiz-adv-x="1119" 
d="M554 -19c-98 0 -181.336 19.833 -250.003 59.5s-121.167 96 -157.5 169s-54.5 159.5 -54.5 259.5v159h648v3.5v2.5c-3.33301 47.333 -15.166 89.5 -35.499 126.5s-48.666 66 -84.999 87s-79.833 31.5 -130.5 31.5c-55.333 0 -105.666 -6.66699 -150.999 -20
s-92.666 -33.666 -141.999 -60.999l-80 180c44 35.333 101.667 65.166 173 89.499s150.666 36.5 237.999 36.5c104 0 194.5 -23 271.5 -69s136.667 -109 179 -189s63.5 -171.333 63.5 -274v-40c0 -108 -20 -203.5 -60 -286.5s-96.5 -147.833 -169.5 -194.5
s-158.833 -70 -257.5 -70zM551.997 205c36 0 66.998 9.33203 92.998 27.999s46.833 44.834 62.5 78.501s26.167 73.167 31.5 118.5l-3 5h-357v-26c0 -42 6.33301 -78.167 19 -108.5s31.834 -53.833 57.501 -70.5s57.834 -25 96.501 -25z" />
    <glyph glyph-name="uni02BC" unicode="&#x2bc;" horiz-adv-x="471" 
d="M203 978l-144.001 78.999c26 46 46 93.833 60 143.5s21 105.834 21 168.501v191h245v-191c0 -44.667 -8.16699 -91.167 -24.5 -139.5s-38.166 -94.5 -65.499 -138.5s-58 -81.667 -92 -113z" />
    <glyph glyph-name="circumflex" unicode="&#x2c6;" horiz-adv-x="803" 
d="M40 1291v26l255 243h215l253 -246v-23h-228l-133 144l-137 -144h-225z" />
    <glyph glyph-name="caron" unicode="&#x2c7;" horiz-adv-x="803" 
d="M763 1560v-26l-254 -243h-216l-253 246v23h228l134 -144l137 144h224z" />
    <glyph glyph-name="uni02C9" unicode="&#x2c9;" horiz-adv-x="811" 
d="M40 1312v176h731v-176h-731z" />
    <glyph glyph-name="breve" unicode="&#x2d8;" horiz-adv-x="774" 
d="M387 1263c-107.333 0 -192.668 27.167 -256.001 81.5s-93.666 124.166 -90.999 209.499l2 6h198c0 -38.667 11.833 -70.667 35.5 -96s60.834 -38 111.501 -38c50 0 86.667 12.333 110 37s35 57 35 97h200l2 -6c1.33301 -85.333 -29.334 -155.166 -92.001 -209.499
s-147.667 -81.5 -255 -81.5z" />
    <glyph glyph-name="dotaccent" unicode="&#x2d9;" horiz-adv-x="382" 
d="M40 1311v249h302v-249h-302z" />
    <glyph glyph-name="ring" unicode="&#x2da;" horiz-adv-x="545" 
d="M275 1228c-66.667 0 -122.5 20 -167.5 60s-67.5 91.333 -67.5 154c0 62 22.667 114 68 156s101 63 167 63c64.667 0 119.167 -21 163.5 -63s66.5 -94 66.5 -156c0 -62.667 -22.167 -114 -66.5 -154s-98.833 -60 -163.5 -60zM275 1345c27.333 0 49.5 9 66.5 27
s25.5 41.333 25.5 70c0 29.333 -8.5 53.166 -25.5 71.499s-39.167 27.5 -66.5 27.5c-28 0 -51.167 -9.16699 -69.5 -27.5s-27.5 -42.166 -27.5 -71.499c0 -28.667 9.16699 -52 27.5 -70s41.5 -27 69.5 -27z" />
    <glyph glyph-name="ogonek" unicode="&#x2db;" horiz-adv-x="469" 
d="M294 -424c-75.333 0 -136.5 19.167 -183.5 57.5s-70.5 91.833 -70.5 160.5c0 50 17.833 98.833 53.5 146.5s95.5 87.5 179.5 119.5l125 -60c-48.667 -30 -84 -58.333 -106 -85s-33 -55 -33 -85c0 -25.333 7 -44.333 21 -57s36 -19 66 -19c16 0 30.667 1.5 44 4.5
s26.666 6.83301 39.999 11.5l35 -154c-23.333 -11.333 -48.666 -20.833 -75.999 -28.5s-59 -11.5 -95 -11.5z" />
    <glyph glyph-name="tilde" unicode="&#x2dc;" horiz-adv-x="829" 
d="M191 1283l-151 40.001c0 44.667 10.5 86 31.5 124s48.833 68.667 83.5 92s72.334 35 113.001 35c32 0 65.333 -8 100 -24s67.834 -32.167 99.501 -48.5s58.5 -24.5 80.5 -24.5c27.333 0.666992 49.166 11.167 65.499 31.5s24.5 46.166 24.5 77.499l151 -42
c0 -46 -10.5 -87.833 -31.5 -125.5s-48.833 -67.667 -83.5 -90s-72.667 -33.5 -114 -33.5c-34.667 0 -69.334 8 -104.001 24s-67 32.167 -97 48.5s-56.333 24.5 -79 24.5c-27.333 0 -49 -10.667 -65 -32s-24 -47 -24 -77z" />
    <glyph glyph-name="hungarumlaut" unicode="&#x2dd;" horiz-adv-x="931" 
d="M386 1287l-2 5l240 268h277l2 -6l-293 -267h-224zM47 1287h-7l199 273h260l2 -5l-240 -268h-214z" />
    <glyph glyph-name="uni02F3" unicode="&#x2f3;" horiz-adv-x="538" 
d="M271 -522c-66.667 0 -122.5 20 -167.5 60s-67.5 91.333 -67.5 154c0 62 22.667 113.833 68 155.5s101 62.5 167 62.5c64.667 0 119.167 -21 163.5 -63s66.5 -93.667 66.5 -155c0 -62.667 -22.167 -114 -66.5 -154s-98.833 -60 -163.5 -60zM271 -405
c27.333 0 49.5 8.83301 66.5 26.5s25.5 41.167 25.5 70.5s-8.5 53.166 -25.5 71.499s-39.167 27.5 -66.5 27.5c-28 0 -51.167 -9.16699 -69.5 -27.5s-27.5 -42.166 -27.5 -71.499c0 -28.667 9.16699 -52 27.5 -70s41.5 -27 69.5 -27z" />
    <glyph glyph-name="gravecomb" unicode="&#x300;" 
d="M550 1287h-8h-226l-276 267l2 6h309z" />
    <glyph glyph-name="acutecomb" unicode="&#x301;" 
d="M40 1287l199 273h309l2 -6l-276 -267h-226h-8z" />
    <glyph glyph-name="uni0302" unicode="&#x302;" 
d="M40 1291v26l255 243h215l253 -246v-23h-228l-133 144l-137 -144h-225z" />
    <glyph glyph-name="tildecomb" unicode="&#x303;" 
d="M191 1283l-151 40.001c0 44.667 10.5 86 31.5 124s48.833 68.667 83.5 92s72.334 35 113.001 35c32 0 65.333 -8 100 -24s67.834 -32.167 99.501 -48.5s58.5 -24.5 80.5 -24.5c27.333 0.666992 49.166 11.167 65.499 31.5s24.5 46.166 24.5 77.499l151 -42
c0 -46 -10.5 -87.833 -31.5 -125.5s-48.833 -67.667 -83.5 -90s-72.667 -33.5 -114 -33.5c-34.667 0 -69.334 8 -104.001 24s-67 32.167 -97 48.5s-56.333 24.5 -79 24.5c-27.333 0 -49 -10.667 -65 -32s-24 -47 -24 -77z" />
    <glyph glyph-name="uni0304" unicode="&#x304;" 
d="M40 1312v176h731v-176h-731z" />
    <glyph glyph-name="uni0306" unicode="&#x306;" 
d="M387 1263c-107.333 0 -192.668 27.167 -256.001 81.5s-93.666 124.166 -90.999 209.499l2 6h198c0 -38.667 11.833 -70.667 35.5 -96s60.834 -38 111.501 -38c50 0 86.667 12.333 110 37s35 57 35 97h200l2 -6c1.33301 -85.333 -29.334 -155.166 -92.001 -209.499
s-147.667 -81.5 -255 -81.5z" />
    <glyph glyph-name="uni0307" unicode="&#x307;" 
d="M40 1311v249h302v-249h-302z" />
    <glyph glyph-name="uni0308" unicode="&#x308;" 
d="M491 1311v249h281v-249h-281zM40 1311v249h281v-249h-281z" />
    <glyph glyph-name="hookabovecomb" unicode="&#x309;" 
d="M62 1254l-15 136.001c48.667 2 83.667 8 105 18s32 26 32 48c0 23.333 -12.667 40.166 -38 50.499s-60 15.5 -104 15.5l7 133c123.333 0 217.833 -17 283.5 -51s98.5 -81 98.5 -141c0 -42.667 -14.5 -76 -43.5 -100s-64.5 -39 -106.5 -45l-1 -64h-218z" />
    <glyph glyph-name="uni030A" unicode="&#x30a;" 
d="M275 1228c-66.667 0 -122.5 20 -167.5 60s-67.5 91.333 -67.5 154c0 62 22.667 114 68 156s101 63 167 63c64.667 0 119.167 -21 163.5 -63s66.5 -94 66.5 -156c0 -62.667 -22.167 -114 -66.5 -154s-98.833 -60 -163.5 -60zM275 1345c27.333 0 49.5 9 66.5 27
s25.5 41.333 25.5 70c0 29.333 -8.5 53.166 -25.5 71.499s-39.167 27.5 -66.5 27.5c-28 0 -51.167 -9.16699 -69.5 -27.5s-27.5 -42.166 -27.5 -71.499c0 -28.667 9.16699 -52 27.5 -70s41.5 -27 69.5 -27z" />
    <glyph glyph-name="uni030B" unicode="&#x30b;" 
d="M386 1287l-2 5l240 268h277l2 -6l-293 -267h-224zM47 1287h-7l199 273h260l2 -5l-240 -268h-214z" />
    <glyph glyph-name="uni030C" unicode="&#x30c;" 
d="M763 1560v-26l-254 -243h-216l-253 246v23h228l134 -144l137 144h224z" />
    <glyph glyph-name="uni030F" unicode="&#x30f;" 
d="M556 1287h-223l-293 267l2 6h276l240 -268zM896 1287h-215l-240 268l2 5h260l200 -273h-7z" />
    <glyph glyph-name="uni0312" unicode="&#x312;" 
d="M216 1683l135 -89.999c-21.333 -32 -37.5 -64.5 -48.5 -97.5s-16.5 -73.833 -16.5 -122.5v-94h-246v80c0 64 16.5 124.167 49.5 180.5s75.167 104.166 126.5 143.499z" />
    <glyph glyph-name="uni031B" unicode="&#x31b;" 
d="M40 809v139.998c41.333 0 72.833 9.83301 94.5 29.5s36.667 47.334 45 83.001s12.5 76.834 12.5 123.501h198c0 -73.333 -11.5 -138.333 -34.5 -195s-60 -101 -111 -133s-119.167 -48 -204.5 -48z" />
    <glyph glyph-name="dotbelowcomb" unicode="&#x323;" 
d="M40 -409v249h302v-249h-302z" />
    <glyph glyph-name="uni0325" unicode="&#x325;" 
d="M275 -522c-66.667 0 -122.5 20 -167.5 60s-67.5 91.333 -67.5 154c0 62 22.667 113.833 68 155.5s101 62.5 167 62.5c64.667 0 119.167 -21 163.5 -63s66.5 -93.667 66.5 -155c0 -62.667 -22.167 -114 -66.5 -154s-98.833 -60 -163.5 -60zM275 -405
c27.333 0 49.5 8.83301 66.5 26.5s25.5 41.167 25.5 70.5s-8.5 53.166 -25.5 71.499s-39.167 27.5 -66.5 27.5c-28 0 -51.167 -9.16699 -69.5 -27.5s-27.5 -42.166 -27.5 -71.499c0 -28.667 9.16699 -52 27.5 -70s41.5 -27 69.5 -27z" />
    <glyph glyph-name="uni0326.1" unicode="&#x326;" 
d="M175 -532l-135 89.001c21.333 32.667 37.5 65.5 48.5 98.5s16.5 73.833 16.5 122.5v94h246v-81c0 -63.333 -16.5 -123.333 -49.5 -180s-75.167 -104.334 -126.5 -143.001z" />
    <glyph glyph-name="uni0327" unicode="&#x327;" 
d="M62 -459l-7 159.999c40 0 71.833 6.5 95.5 19.5s35.5 32.833 35.5 59.5c0 28.667 -11.667 48.5 -35 59.5s-60.333 17.833 -111 20.5l34 158h215l-13 -74c44.667 -7.33301 82 -24.166 112 -50.499s45 -65.5 45 -117.5c0 -71.333 -32.333 -128.333 -97 -171
s-156 -64 -274 -64z" />
    </font>
</defs>
</svg>
