<?xml version="1.0" standalone="no"?>
<!DOCTYPE svg PUBLIC "-//W3C//DTD SVG 1.1//EN" "http://www.w3.org/Graphics/SVG/1.1/DTD/svg11.dtd" >
<svg>
<metadata>
Created by FontForge 20090914 at Mon Dec 21 23:44:04 2020
 By www-data
Copyright 2018 The Roboto Slab Project Authors (https://github.com/googlefonts/robotoslab)
</metadata>
<defs>
<font id="RobotoSlab-Regular" horiz-adv-x="0" >
  <font-face 
    font-family="Roboto Slab"
    font-weight="400"
    font-stretch="normal"
    units-per-em="2048"
    panose-1="0 0 0 0 0 0 0 0 0 0"
    ascent="1638"
    descent="-410"
    x-height="1082"
    cap-height="1456"
    bbox="-355.001 -555 2523 2146"
    underline-thickness="100"
    underline-position="-100"
    unicode-range="U+000D-U+FFFD"
  />
<missing-glyph horiz-adv-x="1038" 
d="M100 0v1456h838v-1456h-838zM154 54h730v1348h-730v-1348zM858 20l-738 1416h60l738 -1416h-60zM120 20l738 1416h60l-738 -1416h-60z" />
    <glyph glyph-name="fi" unicode="fi" horiz-adv-x="1239" 
d="M51 0v126l163 28v782h-169v146h169v117c0 121.333 35.667 215.333 107 282s170 100 296 100c44 0 88 -5.33301 132 -16s94.667 -25.667 152 -45l-33 -160c-35.333 14 -73 26 -113 36s-81 15 -123 15c-78.667 0 -135.167 -17.333 -169.5 -52s-51.5 -88 -51.5 -160v-117
h617v-928l163 -28v-126h-523v126l163 28v782h-420v-782l163 -28v-126h-523z" />
    <glyph glyph-name="fl" unicode="fl" horiz-adv-x="1350" 
d="M51 0l0.000976562 126l163 28v782h-144v146h144v78c0 134 39.167 237.667 117.5 311s186.833 110 325.5 110c57.333 0 114 -5.33301 170 -16s121 -26 195 -46h89v-1365l163 -28v-126h-523v126l163 28v1226c-38.667 9.33301 -78.334 16.833 -119.001 22.5
s-81.667 8.5 -123 8.5c-92 0 -158.5 -20.667 -199.5 -62s-61.5 -104.333 -61.5 -189v-78h251v-146h-251v-782l163 -28v-126h-523z" />
    <glyph glyph-name=".notdef" horiz-adv-x="1038" 
d="M100 0v1456h838v-1456h-838zM154 54h730v1348h-730v-1348zM858 20l-738 1416h60l738 -1416h-60zM120 20l738 1416h60l-738 -1416h-60z" />
    <glyph glyph-name="CR" unicode="&#xd;" horiz-adv-x="509" 
 />
    <glyph glyph-name="space" unicode=" " horiz-adv-x="509" 
 />
    <glyph glyph-name="exclam" unicode="!" horiz-adv-x="483" 
d="M143 478v978h197v-978h-197zM143 0v204h197v-204h-197z" />
    <glyph glyph-name="quotedbl" unicode="&#x22;" horiz-adv-x="770" 
d="M166 1055v301v204h158v-223l-61 -282h-97zM476 1055v301v204h158v-223l-61 -282h-97z" />
    <glyph glyph-name="numbersign" unicode="#" horiz-adv-x="1246" 
d="M218 0l80 410h-235v140h263l68 348h-255v142h283l82 416h151l-82 -416h255l82 416h151l-82 -416h200v-142h-227l-68 -348h220v-140h-248l-80 -410h-151l80 410h-256l-80 -410h-151zM477 550h256l68 348h-256z" />
    <glyph glyph-name="dollar" unicode="$" horiz-adv-x="1110" 
d="M470 -208l-0.000976562 190.997c-76 8 -143.667 29.167 -203 63.5s-105.333 82.833 -138 145.5s-48.334 140 -47.001 232l2 5h190c0 -68 11.833 -123 35.5 -165s55.834 -72.5 96.501 -91.5s86 -28.5 136 -28.5c57.333 0 106.333 9.33301 147 28
s71.834 45.334 93.501 80.001s32.5 76 32.5 124c0 40 -9.16699 76 -27.5 108s-47.666 61 -87.999 87s-93.166 50 -158.499 72c-89.333 27.333 -164.333 60.333 -225 99s-106.334 85.5 -137.001 140.5s-46 120.167 -46 195.5c0 110 31.667 199.667 95 269
s150.333 111 261 125v221h158v-222c111.333 -16 197.833 -63.833 259.5 -143.5s92.5 -186.5 92.5 -320.5h-14h-182c0 90.667 -20.833 164 -62.5 220s-99.834 84 -174.501 84c-78.667 0 -137.667 -20.5 -177 -61.5s-59 -97.167 -59 -168.5
c0 -42.667 8.66699 -79.834 26 -111.501s46.333 -60.167 87 -85.5s96.334 -50 167.001 -74c90.667 -29.333 165.667 -63.166 225 -101.499s103.666 -84.166 132.999 -137.499s44 -117.666 44 -192.999c0 -114.667 -34.333 -206 -103 -274s-163 -108.333 -283 -121v-191h-156
z" />
    <glyph glyph-name="percent" unicode="%" horiz-adv-x="1460" 
d="M422 110l-109 67l711 1138l109 -67zM1084 -21c-61.333 0 -114.667 13.166 -160 39.499s-80.333 62.166 -105 107.499s-37 96.333 -37 153v78c0 56 12.333 106.667 37 152s59.5 81.333 104.5 108s97.833 40 158.5 40s113.667 -13.167 159 -39.5
s80.5 -62.166 105.5 -107.499s37.5 -96.333 37.5 -153v-78c0 -56.667 -12.333 -107.667 -37 -153s-59.5 -81.166 -104.5 -107.499s-97.833 -39.5 -158.5 -39.5zM1084 100.999c49.333 0 87.332 17.167 113.999 51.5s40 76.5 40 126.5v78c0 49.333 -13.667 91.333 -41 126
s-65.666 52 -114.999 52s-87.333 -17.333 -114 -52s-40 -76.667 -40 -126v-78c0 -50 13.5 -92.167 40.5 -126.5s65.5 -51.5 115.5 -51.5zM378.998 799.999c-60.667 0 -113.666 13.168 -158.999 39.501s-80.5 62 -105.5 107s-37.5 95.833 -37.5 152.5v77
c0 56.667 12.333 107.667 37 153s59.5 81.333 104.5 108s97.833 40 158.5 40c61.333 0 114.666 -13.167 159.999 -39.5s80.333 -62.333 105 -108s37 -96.834 37 -153.501v-77c0 -56.667 -12.333 -107.5 -37 -152.5s-59.5 -80.667 -104.5 -107s-97.833 -39.5 -158.5 -39.5z
M378.999 922c48.667 0 86.499 16.999 113.499 50.999s40.5 76 40.5 126v77c0 49.333 -13.667 91.5 -41 126.5s-65.666 52.5 -114.999 52.5s-87.333 -17.5 -114 -52.5s-40 -77.167 -40 -126.5v-77c0 -49.333 13.5 -91.166 40.5 -125.499s65.5 -51.5 115.5 -51.5z" />
    <glyph glyph-name="ampersand" unicode="&#x26;" horiz-adv-x="1289" 
d="M548 -21c-96 0 -179.499 17.5 -250.499 52.5s-126 83.5 -165 145.5s-58.5 133.667 -58.5 215c0 80 22.667 150 68 210s113 120.333 203 181c2 1.33301 3.83301 2.5 5.5 3.5s3.16699 1.83301 4.5 2.5c-52 66 -90.667 124.833 -116 176.5s-38 104.834 -38 159.501
c0 75.333 14.667 139.166 44 191.499s71.333 92.166 126 119.499s120 41 196 41c70.667 0 132.667 -14 186 -42s95 -65.333 125 -112s45 -98.667 45 -156c0 -65.333 -17.5 -121.833 -52.5 -169.5s-86.833 -96.5 -155.5 -146.5l-109 -80l340 -409
c27.333 43.333 48.666 91.333 63.999 144s23 108.334 23 167.001h176c0 -87.333 -13 -168.333 -39 -243s-63.667 -141.667 -113 -201l185 -224l-2 -5h-229l-85 102c-53.333 -40 -112.333 -70.5 -177 -91.5s-131.667 -31.5 -201 -31.5zM548.001 133
c48 0 95.334 8.16504 142.001 24.498s90.667 39.833 132 70.5l-361 435l-40 -29c-60.667 -45.333 -100.834 -88.666 -120.501 -129.999s-29.5 -78.666 -29.5 -111.999c0 -75.333 23.667 -137.333 71 -186s116 -73 206 -73zM506.002 890.998l138 94.999
c38 25.333 63.833 52.833 77.5 82.5s20.5 62.5 20.5 98.5c0 40.667 -16.167 76.667 -48.5 108s-74.5 47 -126.5 47c-54 0 -95.667 -18.833 -125 -56.5s-44 -83.834 -44 -138.501c0 -35.333 9 -72.166 27 -110.499s45 -80.166 81 -125.499z" />
    <glyph glyph-name="quotesingle" unicode="'" horiz-adv-x="460" 
d="M166 1055v301v204h158v-223l-61 -282h-97z" />
    <glyph glyph-name="parenleft" unicode="(" horiz-adv-x="662" 
d="M607 -463c-58 31.333 -116.167 78.502 -174.5 141.502s-111.5 139.667 -159.5 230s-86.5 192.166 -115.5 305.499s-43.5 236 -43.5 368v9c0 131.333 14.5 253.666 43.5 366.999s67.5 215.333 115.5 306s101.167 167.667 159.5 231s116.5 110.333 174.5 141l6 -1l37 -116
c-46 -36 -89.333 -82.667 -130 -140s-76.667 -125 -108 -203s-56 -165.667 -74 -263s-27 -204 -27 -320v-13c0 -116 9 -222.667 27 -320s42.5 -185.166 73.5 -263.499s67 -146.833 108 -205.5s84.5 -107.334 130.5 -146.001l-37 -108h-6z" />
    <glyph glyph-name="parenright" unicode=")" horiz-adv-x="654" 
d="M48 -463l-37 107.998c45.333 35.333 88.333 82 129 140s76.667 126.5 108 205.5s56.166 168 74.499 267s27.5 206.5 27.5 322.5v13c0 114 -9.5 220 -28.5 318s-44.5 186.667 -76.5 266s-68.167 148.5 -108.5 207.5s-82.166 106.833 -125.499 143.5l37 108h6
c58 -30.667 116 -77.667 174 -141s111.167 -140.333 159.5 -231s87 -192.667 116 -306s43.5 -235.666 43.5 -366.999v-9c0 -132 -14.5 -254.667 -43.5 -368s-67.667 -215.166 -116 -305.499s-101.5 -167 -159.5 -230s-116 -110.167 -174 -141.5h-6z" />
    <glyph glyph-name="asterisk" unicode="*" horiz-adv-x="958" 
d="M653 607l-181 287l-176 -279l-132 93l198 274l-296 89l49 154l296 -111l-10 342h161l-10 -348l293 110l48 -156l-302 -89l193 -270z" />
    <glyph glyph-name="plus" unicode="+" horiz-adv-x="1145" 
d="M474 146v459h-401v178h401v423h197v-423h400v-178h-400v-459h-197z" />
    <glyph glyph-name="comma" unicode="," horiz-adv-x="404" 
d="M134 -311l-111 73.998c31.333 48 55 97 71 147s24 103 24 159v152h197v-149c0 -65.333 -16.333 -133.666 -49 -204.999s-76.667 -130.666 -132 -177.999z" />
    <glyph glyph-name="hyphen" unicode="-" horiz-adv-x="797" 
d="M154 538v154h489v-154h-489z" />
    <glyph glyph-name="period" unicode="." horiz-adv-x="493" 
d="M145 0v202h197v-202h-197z" />
    <glyph glyph-name="slash" unicode="/" horiz-adv-x="824" 
d="M0 -125l608 1581h166l-607 -1581h-167z" />
    <glyph glyph-name="zero" unicode="0" horiz-adv-x="1168" 
d="M585 -21c-142.667 0 -255.667 49.668 -339 149.001s-125 241.666 -125 426.999v345c0 185.333 41.333 327.833 124 427.5s195.334 149.5 338.001 149.5c143.333 0 256.666 -49.833 339.999 -149.5s125 -242.167 125 -427.5v-345c0 -186 -41.333 -328.5 -124 -427.5
s-195.667 -148.5 -339 -148.5zM585 133.001c87.333 0 153.5 32 198.5 96s67.5 159.333 67.5 286v427c0 126 -22.833 220.833 -68.5 284.5s-112.167 95.5 -199.5 95.5c-86 0 -151.667 -31.833 -197 -95.5s-68 -158.5 -68 -284.5v-427c0 -126 23 -221.167 69 -285.5
s112 -96.5 198 -96.5z" />
    <glyph glyph-name="one" unicode="1" horiz-adv-x="844" 
d="M121 0v126l225 28v1091l-229 -4v123l426 92v-1302l224 -28v-126h-646z" />
    <glyph glyph-name="two" unicode="2" horiz-adv-x="1131" 
d="M97 0v134.999l477 530c56.667 63.333 101 117.5 133 162.5s54.333 85.833 67 122.5s19 74.667 19 114c0 72.667 -22 133.834 -66 183.501s-107 74.5 -189 74.5c-85.333 0 -151.833 -25.667 -199.5 -77s-71.5 -124 -71.5 -218h-189l-2 6c-2 84 15.667 159.5 53 226.5
s91.5 120 162.5 159s155.5 58.5 253.5 58.5c92 0 171.167 -17.5 237.5 -52.5s117.5 -82.833 153.5 -143.5s54 -130.334 54 -209.001c0 -53.333 -10.5 -106.333 -31.5 -159s-51.667 -106.667 -92 -162s-88.833 -113.666 -145.5 -174.999l-383 -417l2 -5h517l16 167h167v-321
h-943z" />
    <glyph glyph-name="three" unicode="3" horiz-adv-x="1106" 
d="M530 -21c-88.667 0 -167.664 16.1689 -236.997 48.502s-123.5 78.333 -162.5 138s-57.5 130.5 -55.5 212.5l3 6h188c0 -51.333 10.667 -95.666 32 -132.999s51.666 -66.333 90.999 -87s86.333 -31 141 -31c83.333 0 148.666 22.667 195.999 68s71 112.333 71 201
c0 90 -21 156.333 -63 199s-108.333 64 -199 64h-172v154h172c58 0 104.667 9.83301 140 29.5s60.833 48 76.5 85s23.5 81.5 23.5 133.5c0 83.333 -20.667 146.666 -62 189.999s-102.333 65 -183 65c-51.333 0 -96 -10.167 -134 -30.5s-67.5 -49 -88.5 -86
s-31.5 -80.5 -31.5 -130.5h-189l-2 6c-2 73.333 15.5 140 52.5 200s89.333 107.667 157 143s146.167 53 235.5 53c134.667 0 242 -35.833 322 -107.5s120 -173.834 120 -306.501c0 -60 -18.167 -119.833 -54.5 -179.5s-90.833 -105.167 -163.5 -136.5
c87.333 -28.667 149.166 -73.667 185.499 -135s54.5 -130 54.5 -206c0 -88.667 -19.833 -164.834 -59.5 -228.501s-94.5 -112.667 -164.5 -147s-150 -51.5 -240 -51.5z" />
    <glyph glyph-name="four" unicode="4" horiz-adv-x="1187" 
d="M554 0v126l163 28v182h-654v111l642 1009h208v-966h201v-154h-201v-182l163 -28v-126h-522zM273 490h444v685l-6 2l-20 -53z" />
    <glyph glyph-name="five" unicode="5" horiz-adv-x="1081" 
d="M522 -21c-82 0 -155.502 15.001 -220.502 45.001s-115.833 74.5 -152.5 133.5s-54 132.167 -52 219.5l2 6h178c0 -78.667 22.833 -140 68.5 -184s104.5 -66 176.5 -66c83.333 0 148 29.333 194 88s69 139 69 241c0 94 -23.167 170.833 -69.5 230.5
s-110.5 89.5 -192.5 89.5c-77.333 0 -133.5 -11.667 -168.5 -35s-60.5 -59 -76.5 -107l-164 17l84 799h769v-288h-148l-19 113h-435l-47 -409c20 15.333 41.667 28.833 65 40.5s48.833 21.167 76.5 28.5s57.834 11.333 90.501 12c89.333 0.666992 166.333 -18.833 231 -58.5
s114.334 -96.334 149.001 -170.001s52 -160.5 52 -260.5c0 -97.333 -17.5 -182.333 -52.5 -255s-86.667 -129.167 -155 -169.5s-152.5 -60.5 -252.5 -60.5z" />
    <glyph glyph-name="six" unicode="6" horiz-adv-x="1144" 
d="M614 -21c-94.667 0 -179.168 23.167 -253.501 69.5s-132.833 113.833 -175.5 202.5s-64 196 -64 322v196c0 154 23.167 283.5 69.5 388.5s110.333 184.5 192 238.5s175.5 81 281.5 81c49.333 0 98.5 -5.66699 147.5 -17s89.5 -25.666 121.5 -42.999l-38 -147
c-31.333 15.333 -65.666 27.833 -102.999 37.5s-80 14.5 -128 14.5c-102 0 -183.167 -38.5 -243.5 -115.5s-92.5 -193.167 -96.5 -348.5l4 -4c37.333 34.667 83 62.167 137 82.5s112.333 30.5 175 30.5c86.667 0 162 -20.5 226 -61.5s113.5 -97.5 148.5 -169.5
s52.5 -154 52.5 -246c0 -100.667 -18.667 -189.334 -56 -266.001s-90 -136.667 -158 -180s-147.667 -65 -239 -65zM613.999 133c54 0 99.999 15.666 137.999 46.999s67.167 74 87.5 128s30.5 114.667 30.5 182c0 96 -24.167 175 -72.5 237s-115.166 93 -200.499 93
c-44.667 0 -85.167 -6.16699 -121.5 -18.5s-67.666 -29.666 -93.999 -51.999s-47.833 -48.5 -64.5 -78.5v-117c0 -135.333 28.167 -239.333 84.5 -312s127.166 -109 212.499 -109z" />
    <glyph glyph-name="seven" unicode="7" horiz-adv-x="1128" 
d="M357 0l16 157.001c18.667 153.333 49 295 91 425s96.333 253.667 163 371s146.667 233.333 240 348h-608l-15 -167h-168v322h984v-155c-88 -104.667 -160.667 -201.834 -218 -291.501s-103.5 -178 -138.5 -265s-62.5 -177.833 -82.5 -272.5s-37 -199.667 -51 -315
l-16 -157h-197z" />
    <glyph glyph-name="eight" unicode="8" horiz-adv-x="1131" 
d="M566 -21c-95.333 0 -178.498 15.833 -249.498 47.5s-126.167 78.334 -165.5 140.001s-59 137.5 -59 227.5c0 82 24.667 154.333 74 217s116 108.667 200 138c-72.667 28 -129.667 70.5 -171 127.5s-62 123.5 -62 199.5c0 85.333 18 157.833 54 217.5
s86.333 105.167 151 136.5s140 47 226 47c85.333 0 160.666 -15.667 225.999 -47s116.5 -76.833 153.5 -136.5s55.5 -132.167 55.5 -217.5c0 -76 -21.333 -142.5 -64 -199.5s-100.334 -99.5 -173.001 -127.5c84 -29.333 151.167 -75.333 201.5 -138s75.5 -135 75.5 -217
c0 -90 -20 -165.833 -60 -227.5s-95.5 -108.334 -166.5 -140.001s-153.167 -47.5 -246.5 -47.5zM566.002 133c54.667 0 102.832 10.668 144.499 32.001s74.167 51.833 97.5 91.5s35 86.834 35 141.501c0 53.333 -12 100.666 -36 141.999s-57 73.666 -99 96.999
s-90 35 -144 35s-101.667 -11.667 -143 -35s-73.666 -55.5 -96.999 -96.5s-35 -88.5 -35 -142.5c0 -82.667 25.167 -147.5 75.5 -194.5s117.5 -70.5 201.5 -70.5zM566 827.001c46 0 86.834 10.166 122.501 30.499s63.5 48.833 83.5 85.5s30 79.667 30 129
c0 48 -10.333 90.833 -31 128.5s-48.834 67.334 -84.501 89.001s-76.5 32.5 -122.5 32.5c-70 0 -126.5 -22.833 -169.5 -68.5s-64.5 -106.167 -64.5 -181.5c0 -74 21.667 -133.333 65 -178s100.333 -67 171 -67z" />
    <glyph glyph-name="nine" unicode="9" horiz-adv-x="1154" 
d="M511 -21c-50.667 0 -102.495 4.83105 -155.495 14.498s-100.5 24.5 -142.5 44.5l30 149c40.667 -19.333 82.167 -33.166 124.5 -41.499s90.166 -12.5 143.499 -12.5c94.667 0 169.5 36.167 224.5 108.5s83.5 188.833 85.5 349.5l-4 5c-26.667 -44.667 -64 -79 -112 -103
s-102 -36 -162 -36c-94.667 0 -176.334 19.667 -245.001 59s-121.5 96.333 -158.5 171s-55.5 165 -55.5 271c0 101.333 20.167 191 60.5 269s94.666 139.167 162.999 183.5s144.166 66.5 227.499 66.5c101.333 0 188.666 -21.167 261.999 -63.5s129.833 -105.333 169.5 -189
s59.5 -187.5 59.5 -311.5v-263c0 -151.333 -21.333 -276.666 -64 -375.999s-102.5 -173.333 -179.5 -222s-167.5 -73 -271.5 -73zM543.005 611.998c72.667 0 133.168 15.668 181.501 47.001s83.166 71.333 104.499 120v154c0 128.667 -24.5 225.667 -73.5 291
s-120.5 98 -214.5 98c-48.667 0 -92.667 -15.5 -132 -46.5s-70.5 -73.833 -93.5 -128.5s-34.5 -117.667 -34.5 -189c0 -70 10.5 -130.833 31.5 -182.5s51.167 -91.834 90.5 -120.501s86 -43 140 -43z" />
    <glyph glyph-name="colon" unicode=":" horiz-adv-x="419" 
d="M145 0v202h197v-202h-197zM145 880v202h197v-202h-197z" />
    <glyph glyph-name="semicolon" unicode=";" horiz-adv-x="424" 
d="M146 880v202h197v-202h-197zM164 -311l-111 73.998c31.333 48 55 97 71 147s24 103 24 159v152h197v-149c0 -65.333 -16.333 -133.666 -49 -204.999s-76.667 -130.666 -132 -177.999z" />
    <glyph glyph-name="less" unicode="&#x3c;" horiz-adv-x="1017" 
d="M892 107l-816 379v149l816 378v-201l-559 -233l-85 -18v-6l85 -19l559 -228v-201z" />
    <glyph glyph-name="equal" unicode="=" horiz-adv-x="1127" 
d="M147 823v164h834v-164h-834zM147 407v164h834v-164h-834z" />
    <glyph glyph-name="greater" unicode="&#x3e;" horiz-adv-x="1060" 
d="M125 87v196l598 238l84 17v6l-84 20l-598 234v195l855 -378v-149z" />
    <glyph glyph-name="question" unicode="?" horiz-adv-x="953" 
d="M360 410c0 48.667 1.66797 88.665 5.00098 119.998s9.83301 58.333 19.5 81s24.5 45.334 44.5 68.001s47 49.334 81 80.001c47.333 42.667 84.166 82.334 110.499 119.001s45 72.334 56 107.001s16.5 70 16.5 106c0 70.667 -18.833 125 -56.5 163s-91.5 57 -161.5 57
c-60.667 0 -112.167 -16.5 -154.5 -49.5s-63.5 -81.5 -63.5 -145.5h-188l-3 6c-1.33301 71.333 15.5 133.666 50.5 186.999s83.5 94.666 145.5 123.999s133 44 213 44c131.333 0 233.333 -33.5 306 -100.5s109 -160.5 109 -280.5c0 -57.333 -9.5 -109.5 -28.5 -156.5
s-47.5 -94 -85.5 -141s-85.667 -99.5 -143 -157.5c-23.333 -24 -40.333 -45.833 -51 -65.5s-17.5 -42 -20.5 -67s-4.5 -57.833 -4.5 -98.5h-197zM358.001 -0.00195312v208h205v-208h-205z" />
    <glyph glyph-name="at" unicode="@" horiz-adv-x="1821" 
d="M863 -453c-168.667 0 -312.497 37.667 -431.497 113s-208.5 182.5 -268.5 321.5s-85.667 304.5 -77 496.5c8.66699 188 49 353.667 121 497s170.333 255.166 295 335.499s269.667 120.5 435 120.5c168.667 0 311.5 -37.667 428.5 -113s204.5 -182.5 262.5 -321.5
s83.333 -303.833 76 -494.5c-4 -95.333 -23 -182.5 -57 -261.5s-83.833 -142.333 -149.5 -190s-147.5 -71.5 -245.5 -71.5c-48.667 0 -90.834 13.833 -126.501 41.5s-61.167 66.5 -76.5 116.5c-66 -105.333 -162.333 -158 -289 -158c-83.333 0 -148 40.167 -194 120.5
s-63 185.833 -51 316.5c10 115.333 34.167 215.833 72.5 301.5s87 152.167 146 199.5s124.833 71 197.5 71c70 0 126.167 -8.66699 168.5 -26s89.166 -44 140.499 -80l2 -4l-51 -585c-4 -48.667 -2 -87.167 6 -115.5s20.5 -48.333 37.5 -60s36.833 -17.5 59.5 -17.5
c82 0 147.5 37.833 196.5 113.5s76.167 171.834 81.5 288.501c11.333 254.667 -36.5 453.167 -143.5 595.5s-272.167 213.5 -495.5 213.5c-137.333 0 -257 -35 -359 -105s-182.333 -167.667 -241 -293s-91.334 -270.333 -98.001 -435c-8 -167.333 12 -311.666 60 -432.999
s120.5 -215 217.5 -281s215.167 -99 354.5 -99c58.667 0 118 7.16699 178 21.5s110.667 33.166 152 56.499l39 -107c-45.333 -28 -102.5 -49.833 -171.5 -65.5s-136.167 -23.5 -201.5 -23.5zM820.003 126c42 0 80.835 8.33301 116.502 25s68.167 46 97.5 88
c-0.666992 8 -0.833984 16.333 -0.500977 25s1.16602 18.334 2.49902 29.001l47 538c-17.333 8 -35.5 14.333 -54.5 19s-38.833 7 -59.5 7c-83.333 0 -147 -36.333 -191 -109s-73 -183.334 -87 -332.001c-7.33301 -94 0 -165.833 22 -215.5s57.667 -74.5 107 -74.5z" />
    <glyph glyph-name="A" unicode="A" horiz-adv-x="1533" 
d="M70 0v126l108 15l509 1315h169l500 -1315l107 -15v-126h-418v126l110 19l-96 268h-583l-99 -268l110 -19v-126h-417zM537 578h462l-214 592l-12 33h-6l-12 -33z" />
    <glyph glyph-name="B" unicode="B" horiz-adv-x="1322" 
d="M81 0v125.999l163 28v1147l-163 28v127h163h465c152 0 270.833 -32.833 356.5 -98.5s128.5 -164.167 128.5 -295.5c0 -64.667 -20.5 -122.5 -61.5 -173.5s-95.167 -88.833 -162.5 -113.5c58.667 -12 109 -35.5 151 -70.5s74.5 -77.667 97.5 -128s34.5 -105.5 34.5 -165.5
c0 -133.333 -43.333 -235.166 -130 -305.499s-204 -105.5 -352 -105.5h-690zM441 153.999l330 0.000976562c90 0 159.833 22.167 209.5 66.5s74.5 107.166 74.5 188.499c0 57.333 -9.16699 106.333 -27.5 147s-46.333 72 -84 94s-85.167 33 -142.5 33h-360v-529zM441 837
h318.998c70.667 0 127.834 20.5 171.501 61.5s65.5 96.833 65.5 167.5c0 78.667 -24.667 137.5 -74 176.5s-120.666 58.5 -213.999 58.5h-268v-464z" />
    <glyph glyph-name="C" unicode="C" horiz-adv-x="1290" 
d="M739 -21c-146 0 -267.833 31.999 -365.5 95.999s-171 151.667 -220 263s-73.5 237.666 -73.5 378.999v21c0 142.667 25.667 269.5 77 380.5s125 198.5 221 262.5s210.667 96 344 96c94 0 180 -14.667 258 -44s142.667 -66.666 194 -111.999v-314h-157l-21 230
c-21.333 16.667 -45.833 30.667 -73.5 42s-58.334 20 -92.001 26s-70.167 9 -109.5 9c-95.333 0 -176 -24.5 -242 -73.5s-116 -116.5 -150 -202.5s-51 -185.333 -51 -298v-23c0 -122 18.167 -226.167 54.5 -312.5s89.333 -152.166 159 -197.499s154.5 -68 254.5 -68
c46.667 0 92.334 5.66699 137.001 17s81.667 26 111 44l22 203h154v-316c-54.667 -34 -120 -60.5 -196 -79.5s-154.333 -28.5 -235 -28.5z" />
    <glyph glyph-name="D" unicode="D" horiz-adv-x="1356" 
d="M81 0l-0.00195312 126l163 28v1147l-163 28v127h163h407c128.667 0 240.834 -30.667 336.501 -92s170.167 -145.666 223.5 -252.999s80 -230 80 -368v-31c0 -134.667 -25.667 -255.834 -77 -363.501s-124.166 -192.667 -218.499 -255s-205.833 -93.5 -334.5 -93.5h-580z
M440.998 154h210c92 0 171 25.167 237 75.5s116.833 117.666 152.5 201.999s53.5 177.833 53.5 280.5v33c0 106 -17.833 200.833 -53.5 284.5s-86.5 149.834 -152.5 198.501s-145 73 -237 73h-210v-1147z" />
    <glyph glyph-name="E" unicode="E" horiz-adv-x="1306" 
d="M81 0v126l163 28v1147l-163 28v127h1078v-350h-158l-22 198h-538v-474h537v-155h-537v-527h570l22 201h157v-349h-1109z" />
    <glyph glyph-name="F" unicode="F" horiz-adv-x="1256" 
d="M81 0v126l163 28v1147l-163 28v127h1095v-350h-158l-22 197h-555v-504h533v-155h-533v-490l163 -28v-126h-523z" />
    <glyph glyph-name="G" unicode="G" horiz-adv-x="1346" 
d="M738 -21c-134.667 0 -251.333 31.167 -350 93.5s-174.667 148.833 -228 259.5s-80 238.667 -80 384v24c0 146.667 26.833 275.167 80.5 385.5s127.167 196.5 220.5 258.5s199.333 93 318 93c113.333 0 209.5 -13 288.5 -39s146.5 -61 202.5 -105v-294h-162l-21 211
c-32.667 21.333 -72.667 37.5 -120 48.5s-103.333 16.5 -168 16.5c-83.333 0 -158.333 -24 -225 -72s-119.334 -114.833 -158.001 -200.5s-58 -185.834 -58 -300.501v-26c0 -116 17.833 -217.167 53.5 -303.5s87.834 -153.333 156.501 -201s152 -71.5 250 -71.5
c66.667 0 123 5.83301 169 17.5s86.667 26.834 122 45.501v342l-279 10v145h476v-564c-42 -39.333 -102.167 -75.333 -180.5 -108s-180.833 -49 -307.5 -49z" />
    <glyph glyph-name="H" unicode="H" horiz-adv-x="1578" 
d="M81 0v126l163 28v1147l-163 28v127h523v-127l-163 -28v-503h696v503l-163 28v127h163h197h163v-127l-163 -28v-1147l163 -28v-126h-523v126l163 28v489h-696v-489l163 -28v-126h-523z" />
    <glyph glyph-name="I" unicode="I" horiz-adv-x="685" 
d="M81 0v126l163 28v1147l-163 28v127h523v-127l-163 -28v-1147l163 -28v-126h-523z" />
    <glyph glyph-name="J" unicode="J" horiz-adv-x="1169" 
d="M503 -21c-80.667 0 -153.831 15.999 -219.498 47.999s-118.334 80.333 -158.001 145s-61.5 145.667 -65.5 243l2 6h189c2.66699 -98 25.167 -170 67.5 -216s102.833 -69 181.5 -69c55.333 0 100.666 11.833 135.999 35.5s61.5 56.334 78.5 98.001s25.5 89.5 25.5 143.5
v888l-194 26v129h554v-127l-163 -28v-888c0 -86.667 -16.5 -162.667 -49.5 -228s-81.667 -116 -146 -152s-143.833 -54 -238.5 -54z" />
    <glyph glyph-name="K" unicode="K" horiz-adv-x="1501" 
d="M427 421l-105 122l691 767l4 5l-109 14v127h467v-127l-137 -25zM81 0v126l163 28v1147l-163 28v127h523v-127l-163 -28v-1147l163 -28v-126h-523zM941 0v126l120 14l-1 1l-403 559l110 155l526 -704l134 -25v-126h-486z" />
    <glyph glyph-name="L" unicode="L" horiz-adv-x="1210" 
d="M81 0v126l163 28v1147l-163 28v127h163h197h163v-127l-163 -28v-1150h515l23 230h151v-381h-1049z" />
    <glyph glyph-name="M" unicode="M" horiz-adv-x="1982" 
d="M94 0v126l163 28v1147l-163 28v127h163h263l469 -1105h6l454 1105h439v-127l-163 -28v-1147l163 -28v-126h-523v126l172 28v422v611l-5 1l-473 -1136h-131l-489 1134l-5 -1l7 -609v-422l176 -28v-126h-523z" />
    <glyph glyph-name="N" unicode="N" horiz-adv-x="1592" 
d="M83 0v126l163 28v1147l-163 28v127h163h199l714 -1135l6 2v978l-179 28v127h360h163v-127l-163 -28v-1301h-180l-733 1141l-6 -2v-985l179 -28v-126h-523z" />
    <glyph glyph-name="O" unicode="O" horiz-adv-x="1351" 
d="M675 -21c-94 0 -178.333 18 -253 54s-138.167 86.833 -190.5 152.5s-92.333 143.5 -120 233.5s-41.5 189.333 -41.5 298v21c0 108 13.833 207.167 41.5 297.5s67.667 168.5 120 234.5s115.833 117 190.5 153s159 54 253 54c99.333 0 186.666 -18 261.999 -54
s138.5 -87 189.5 -153s89.5 -144.167 115.5 -234.5s39 -189.5 39 -297.5v-21c0 -108.667 -13 -208 -39 -298s-64.5 -167.833 -115.5 -233.5s-114.167 -116.5 -189.5 -152.5s-162.666 -54 -261.999 -54zM675 143c96.667 0 174.833 24 234.5 72s103.5 115.167 131.5 201.5
s42 186.5 42 300.5v23c0 113.333 -14.167 212.833 -42.5 298.5s-72.5 152.667 -132.5 201s-137.667 72.5 -233 72.5c-87.333 0 -161.333 -24.333 -222 -73s-106.667 -115.834 -138 -201.501s-47 -184.834 -47 -297.501v-23c0 -113.333 15.667 -213.166 47 -299.499
s77.333 -153.666 138 -201.999s134.667 -72.5 222 -72.5z" />
    <glyph glyph-name="P" unicode="P" horiz-adv-x="1297" 
d="M81 0v125.998l163 28v1147l-163 28v127h163h506c104 0 192.667 -18.167 266 -54.5s129.333 -87.166 168 -152.499s58 -141.666 58 -228.999c0 -88 -19.333 -164.667 -58 -230s-94.667 -116 -168 -152s-162 -54 -266 -54h-309v-430l163 -28v-126h-523zM441 737.998h309
c98.667 0 172.5 26.5 221.5 79.5s73.5 119.833 73.5 200.5s-24.5 148 -73.5 202s-122.833 81 -221.5 81h-309v-563z" />
    <glyph glyph-name="Q" unicode="Q" horiz-adv-x="1376" 
d="M1237 -245l-352.001 258c-33.333 -10.667 -67.666 -19 -102.999 -25s-71.333 -9 -108 -9c-93.333 0 -177.333 18 -252 54s-138.167 87 -190.5 153s-92.333 144 -120 234s-41.5 189 -41.5 297v21c0 108 13.833 207 41.5 297s67.5 168.167 119.5 234.5
s115.333 117.5 190 153.5s159 54 253 54c98.667 0 185.667 -18 261 -54s138.5 -87.167 189.5 -153.5s89.5 -144.5 115.5 -234.5s39 -189 39 -297v-21c0 -131.333 -15.667 -249.833 -47 -355.5s-90 -191.167 -176 -256.5l292 -203zM673.999 143c94 0 171.002 24 231.002 72
s104.5 115.167 133.5 201.5s43.5 186.5 43.5 300.5v23c0 113.333 -14.167 212.833 -42.5 298.5s-72.5 152.667 -132.5 201s-137.667 72.5 -233 72.5c-86.667 0 -160.334 -24.333 -221.001 -73s-106.834 -115.834 -138.501 -201.501s-47.5 -184.834 -47.5 -297.501v-23
c0 -113.333 15.5 -213.166 46.5 -299.499s76.833 -153.666 137.5 -201.999s135 -72.5 223 -72.5z" />
    <glyph glyph-name="R" unicode="R" horiz-adv-x="1385" 
d="M81 0v126l163 28v1147l-163 28v126h649c106 0 195.5 -15.833 268.5 -47.5s128.5 -77.5 166.5 -137.5s57 -133.333 57 -220c0 -85.333 -18.5 -157 -55.5 -215s-89.5 -101.833 -157.5 -131.5s-148.667 -45.5 -242 -47.5l-326 -6v-496l163 -28v-126h-523zM1042 0l-324 727
l197 2l269 -582l101 -18v-129h-243zM441 805l269 -0.000976562c110 0 190 21 240 63s75 103.333 75 184c0 76.667 -24 137.334 -72 182.001s-122.333 67 -223 67h-289v-496z" />
    <glyph glyph-name="S" unicode="S" horiz-adv-x="1206" 
d="M606 -21c-88.667 0 -174.002 13.001 -256.002 39.001s-160.333 66 -235 120v311h153l33 -229c43.333 -26.667 90.333 -47.334 141 -62.001s105.334 -22 164.001 -22c66.667 0 123.167 10.167 169.5 30.5s81.833 48.5 106.5 84.5s37 78 37 126
c0 44.667 -10.667 84 -32 118s-56.5 63.833 -105.5 89.5s-115.833 48.167 -200.5 67.5c-100 23.333 -184.5 54.5 -253.5 93.5s-121.333 86.333 -157 142s-53.5 119.5 -53.5 191.5c0 76 20.167 144 60.5 204s96.5 107.333 168.5 142s156 52 252 52
c102 0 192.167 -15.5 270.5 -46.5s142.833 -68.5 193.5 -112.5v-291h-153l-33 208c-30 24 -67.333 44 -112 60s-100 24 -166 24c-56 0 -105.333 -9.83301 -148 -29.5s-76 -47.167 -100 -82.5s-36 -77 -36 -125c0 -42 10.833 -78.667 32.5 -110s57 -58.833 106 -82.5
s114.5 -45.834 196.5 -66.501c153.333 -38 269.5 -94.167 348.5 -168.5s118.5 -166.166 118.5 -275.499c0 -78 -21 -147.167 -63 -207.5s-101.167 -107.5 -177.5 -141.5s-166.166 -51 -269.499 -51z" />
    <glyph glyph-name="T" unicode="T" horiz-adv-x="1406" 
d="M440 0v126l163 28v1153h-330l-29 -202h-148v351h1210v-351h-146l-30 202h-330v-1153l163 -28v-126h-523z" />
    <glyph glyph-name="U" unicode="U" horiz-adv-x="1522" 
d="M755 -21c-100 0 -189.331 19.668 -267.998 59.001s-140.667 95.5 -186 168.5s-68 160.5 -68 262.5v832l-163 28v127h523v-127l-163 -28v-832c0 -72.667 13.833 -133.667 41.5 -183s66.167 -86.5 115.5 -111.5s106.333 -37.5 171 -37.5
c65.333 0 123.166 12.333 173.499 37s89.666 61.667 117.999 111s42.5 110.666 42.5 183.999v832l-163 28v127h523v-127l-163 -28v-832c0 -105.333 -22.167 -194.5 -66.5 -267.5s-106.5 -128.333 -186.5 -166s-173.667 -56.5 -281 -56.5z" />
    <glyph glyph-name="V" unicode="V" horiz-adv-x="1508" 
d="M669 0l-488 1313l-116 16v127h460v-127l-133 -21l326 -926l34 -115h6l36 115l338 927l-148 20v127h459v-127l-117 -16l-488 -1313h-169z" />
    <glyph glyph-name="W" unicode="W" horiz-adv-x="2129" 
d="M535 0l-340 1314l-123 15v127h472v-127l-151 -23l190 -801l44 -187l6 -1l58 187l293 952h173l296 -952l57 -198h6l52 198l188 802l-163 23v127h464v-127l-115 -15l-326 -1314h-187l-316 1008l-40 147h-6l-39 -147l-317 -1008h-176z" />
    <glyph glyph-name="X" unicode="X" horiz-adv-x="1529" 
d="M80 0v126l126 22l451 591l-418 568l-127 22v127h472v-127l-137 -13l322 -449l306 449l-140 13v127h475v-127l-133 -22l-395 -568l438 -591l129 -22v-126h-478v126l141 13l-345 473l-344 -473l133 -13v-126h-476z" />
    <glyph glyph-name="Y" unicode="Y" horiz-adv-x="1461" 
d="M470 0v126l163 28v376l-448 780l-120 19v127h502v-127l-166 -19l309 -572l21 -39l1 2l20 37l324 572l-172 19v127h492v-127l-127 -19l-440 -765v-391l163 -28v-126h-522z" />
    <glyph glyph-name="Z" unicode="Z" horiz-adv-x="1197" 
d="M90 0v149l757 1153h-566l-18 -188h-158v342h969v-145l-761 -1158h619l18 207h157v-360h-1017z" />
    <glyph glyph-name="bracketleft" unicode="[" horiz-adv-x="573" 
d="M157 -312v1976h384v-155h-187v-1666h187v-155h-384z" />
    <glyph glyph-name="backslash" unicode="\" horiz-adv-x="841" 
d="M644 -125l-608 1581h186l608 -1581h-186z" />
    <glyph glyph-name="bracketright" unicode="]" horiz-adv-x="552" 
d="M23 -312v155h188v1666h-188v155h385v-1976h-385z" />
    <glyph glyph-name="asciicircum" unicode="^" horiz-adv-x="864" 
d="M71 729l299 727h134l298 -727h-182l-166 419l-16 70h-6l-16 -70l-163 -419h-182z" />
    <glyph glyph-name="underscore" unicode="_" horiz-adv-x="1168" 
d="M119 -154v154h922v-154h-922z" />
    <glyph glyph-name="grave" unicode="`" horiz-adv-x="496" 
d="M456 1288h-9h-138l-269 266l2 6h230z" />
    <glyph glyph-name="a" unicode="a" horiz-adv-x="1132" 
d="M424 -21c-112.667 0 -198.336 27.5029 -257.003 82.5029s-88 132.5 -88 232.5c0 68.667 18.833 128.5 56.5 179.5s92.167 90.667 163.5 119s156.666 42.5 255.999 42.5h193v106c0 65.333 -19.833 116 -59.5 152s-95.5 54 -167.5 54
c-45.333 0 -84.666 -5.5 -117.999 -16.5s-63.666 -26.167 -90.999 -45.5l-21 -151h-152v248c48.667 39.333 105.334 69.166 170.001 89.499s136.334 30.5 215.001 30.5c131.333 0 234.333 -31.333 309 -94s112 -152.334 112 -269.001v-521c0 -14 0.166992 -27.667 0.5 -41
s1.16602 -26.666 2.49902 -39.999l105 -11v-126h-283c-6 29.333 -10.667 55.666 -14 78.999s-5.66602 46.666 -6.99902 69.999c-38 -48.667 -85.5 -89.167 -142.5 -121.5s-117.833 -48.5 -182.5 -48.5zM452.998 144.003c65.333 0 125.001 15.666 179.001 46.999
s92.667 69 116 113v196h-200c-90.667 0 -158.667 -21.667 -204 -65s-68 -91.666 -68 -144.999c0 -47.333 14.667 -83.5 44 -108.5s73.666 -37.5 132.999 -37.5z" />
    <glyph glyph-name="b" unicode="b" horiz-adv-x="1145" 
d="M649 -21c-70.667 0 -131.999 13.499 -183.999 40.499s-95.333 66.833 -130 119.5l-18 -139h-170v1405l-163 28v127h360v-606c34 48 76.167 84.667 126.5 110s109.166 38 176.499 38c89.333 0 165.5 -24.167 228.5 -72.5s111.333 -116.166 145 -203.499
s50.5 -189 50.5 -305v-21c0 -104 -16.833 -195 -50.5 -273s-82 -138.833 -145 -182.5s-138.5 -65.5 -226.5 -65.5zM599.001 138.999c92.667 0 161.503 32.999 206.503 98.999s67.5 153.333 67.5 262v21c0 83.333 -10 156.5 -30 219.5s-50.333 112.333 -91 148
s-92.334 53.5 -155.001 53.5c-60.667 0 -111.834 -14.667 -153.501 -44s-74.834 -68.666 -99.501 -117.999v-478c24.667 -50 58.167 -89.667 100.5 -119s93.833 -44 154.5 -44z" />
    <glyph glyph-name="c" unicode="c" horiz-adv-x="1067" 
d="M563 -21c-98 0 -183.337 22.834 -256.004 68.501s-129 109.167 -169 190.5s-60 175.333 -60 282v42c0 102.667 19.333 194.667 58 276s94.334 145.666 167.001 192.999s159.334 71 260.001 71c87.333 0 163.833 -14.333 229.5 -43s120.834 -68 165.501 -118l5 -260h-154
l-34 189c-22.667 23.333 -51 42 -85 56s-74 21 -120 21c-58.667 0 -110.167 -17.333 -154.5 -52s-78.833 -81 -103.5 -139s-37 -122.667 -37 -194v-42c0 -78.667 11.5 -147 34.5 -205s56 -102.833 99 -134.5s94.167 -47.5 153.5 -47.5c66.667 0 122 18.333 166 55
s71 87 81 151h177l2 -6c-3.33301 -62 -21.666 -120 -54.999 -174s-80.833 -97.5 -142.5 -130.5s-137.5 -49.5 -227.5 -49.5z" />
    <glyph glyph-name="d" unicode="d" horiz-adv-x="1218" 
d="M499 -21c-88 0 -163.499 21.834 -226.499 65.501s-111.167 104.5 -144.5 182.5s-50 169 -50 273v21c0 116 16.667 217.667 50 305s81.666 155.166 144.999 203.499s139.333 72.5 228 72.5c64 0 120.5 -11.833 169.5 -35.5s90.833 -57.834 125.5 -102.501v441l-163 28v127
h163h197v-1406l163 -28v-126h-334l-16 129c-35.333 -49.333 -78.5 -86.666 -129.5 -111.999s-110.167 -38 -177.5 -38zM549.001 139.001c58.667 0 108.002 13.332 148.002 39.999s73 64.334 99 113.001v502c-25.333 45.333 -58.333 81.333 -99 108s-89.334 40 -146.001 40
c-62.667 0 -114.334 -17.833 -155.001 -53.5s-71 -85 -91 -148s-30 -136.167 -30 -219.5v-21c0 -108.667 22.333 -196 67 -262s113.667 -99 207 -99z" />
    <glyph glyph-name="e" unicode="e" horiz-adv-x="1059" 
d="M567 -21c-100 0 -186.997 22.834 -260.997 68.501s-131.167 109.167 -171.5 190.5s-60.5 175.333 -60.5 282v44c0 102.667 21.167 194.5 63.5 275.5s98.666 145 168.999 192s147.166 70.5 230.499 70.5c97.333 0 178.833 -20 244.5 -60s115.167 -96.167 148.5 -168.5
s50 -157.5 50 -255.5v-123h-702l-3 -5c1.33301 -69.333 13.5 -130.833 36.5 -184.5s56.167 -95.834 99.5 -126.501s95.333 -46 156 -46c66.667 0 125.167 9.5 175.5 28.5s93.833 45.167 130.5 78.5l77 -128c-38.667 -37.333 -89.834 -68.833 -153.501 -94.5
s-140.167 -38.5 -229.5 -38.5zM284.003 649.001h498.998v26c0 52 -9.16699 98.5 -27.5 139.5s-45.666 73.333 -81.999 97s-81.833 35.5 -136.5 35.5c-44 0 -84 -12.833 -120 -38.5s-65.667 -60.5 -89 -104.5s-38.666 -94 -45.999 -150z" />
    <glyph glyph-name="f" unicode="f" horiz-adv-x="725" 
d="M70 0v126l163 28v782h-169v146h169v137c0 115.333 30.167 204.5 90.5 267.5s144.5 94.5 252.5 94.5c22.667 0 47.167 -1.83301 73.5 -5.5s53.5 -8.83398 81.5 -15.501l-24 -150c-12 2.66699 -28.167 5 -48.5 7s-39.5 3 -57.5 3c-58 0 -101 -17.167 -129 -51.5
s-42 -84.166 -42 -149.499v-137h236v-146h-236v-782l186 -28v-126h-546z" />
    <glyph glyph-name="g" unicode="g" horiz-adv-x="1157" 
d="M549 -437c-52 0 -108.334 7.16797 -169.001 21.501s-114 33.833 -160 58.5l51 153c36.667 -19.333 80 -35.333 130 -48s98.667 -19 146 -19c88 0 152.5 24.667 193.5 74s61.5 119.666 61.5 210.999v103c-35.333 -45.333 -77.666 -79.666 -126.999 -102.999
s-106 -35 -170 -35c-88 0 -164 21.833 -228 65.5s-113.167 104.667 -147.5 183s-51.5 169.166 -51.5 272.499v21c0 116 17.167 217.667 51.5 305s83.5 155.166 147.5 203.499s140.667 72.5 230 72.5c68 0 127.667 -13.333 179 -40s94.333 -65.334 129 -116.001l18 136h166
v-1068c0 -93.333 -17.5 -173.666 -52.5 -240.999s-86 -119.166 -153 -155.499s-148.5 -54.5 -244.5 -54.5zM553.999 139.001c59.333 0 109.002 13.5 149.002 40.5s73 65.167 99 114.5v498c-25.333 46 -58.333 82.5 -99 109.5s-89.667 40.5 -147 40.5
c-62.667 0 -114.834 -18 -156.501 -54s-72.834 -85.5 -93.501 -148.5s-31 -135.833 -31 -218.5v-21c0 -108.667 23 -196 69 -262s116 -99 210 -99zM969.001 921.001l-77 161h241v-126z" />
    <glyph glyph-name="h" unicode="h" horiz-adv-x="1315" 
d="M49 0v126l163 28v1251l-163 28v127h360v-622c37.333 52 83 92.333 137 121s114 43 180 43c116 0 206 -34.667 270 -104s96 -176 96 -320v-524l163 -28v-126h-523v126l163 28v526c0 89.333 -19.167 155.333 -57.5 198s-95.5 64 -171.5 64
c-54 0 -103.167 -12.833 -147.5 -38.5s-80.833 -60.5 -109.5 -104.5v-645l163 -28v-126h-523z" />
    <glyph glyph-name="i" unicode="i" horiz-adv-x="652" 
d="M67 0v126l163 28v773l-163 28v127h360v-928l163 -28v-126h-523zM220 1349v211h207v-211h-207z" />
    <glyph glyph-name="j" unicode="j" horiz-adv-x="525" 
d="M56 -437c-21.333 0 -40.666 1.49902 -57.999 4.49902s-35.333 7.5 -54 13.5l13 150c9.33301 -3.33301 25.166 -6.33301 47.499 -9s39.5 -4 51.5 -4c39.333 0 70.5 17.167 93.5 51.5s34.5 81.5 34.5 141.5v1016l-163 28v127h360v-1171
c0 -111.333 -28.667 -197.166 -86 -257.499s-137 -90.5 -239 -90.5zM174 1349v211h207v-211h-207z" />
    <glyph glyph-name="k" unicode="k" horiz-adv-x="1287" 
d="M64 0v126l163 28v1251l-163 28v127h360v-1406l163 -28v-126h-523zM759 0v126l110 13l-3 4l-313 404l102 157l437 -554l156 -24v-126h-489zM410 313l-73 155l470 468l5 6l-116 13v127h466v-127l-139 -26z" />
    <glyph glyph-name="l" unicode="l" horiz-adv-x="653" 
d="M64 0v126l163 28v1251l-163 28v127h360v-1406l163 -28v-126h-523z" />
    <glyph glyph-name="m" unicode="m" horiz-adv-x="1977" 
d="M74 0l0.00195312 126l163 28v773l-163 28v127h340l13 -141c34.667 51.333 79.334 91 134.001 119s118 42 190 42s133.833 -16.667 185.5 -50s90.5 -83.333 116.5 -150c34 61.333 79 110 135 146s121.333 54 196 54c110.667 0 198 -37.833 262 -113.5s96 -189.5 96 -341.5
v-493l163 -28v-126h-524v126l163 28v495c0 106.667 -18.333 182.167 -55 226.5s-91 66.5 -163 66.5c-68.667 0 -123.834 -24.167 -165.501 -72.5s-65.834 -109.166 -72.501 -182.499v-533l163 -28v-126h-523v126l163 28v495c0 101.333 -18.833 175.5 -56.5 222.5
s-92.167 70.5 -163.5 70.5c-60 0 -109.333 -12.333 -148 -37s-68.334 -59.334 -89.001 -104.001v-647l163 -28v-126h-523z" />
    <glyph glyph-name="n" unicode="n" horiz-adv-x="1343" 
d="M74 0l0.00195312 125.999l163 28v773l-163 28v127h339l14 -161c36 57.333 81.167 101.833 135.5 133.5s116.166 47.5 185.499 47.5c116.667 0 207 -34.167 271 -102.5s96 -173.833 96 -316.5v-529l163 -28v-126h-523v126l163 28v525c0 95.333 -18.833 163 -56.5 203
s-95.167 60 -172.5 60c-56.667 0 -106.834 -13.667 -150.501 -41s-78.5 -64.666 -104.5 -111.999v-635l163 -28v-126h-523z" />
    <glyph glyph-name="o" unicode="o" horiz-adv-x="1124" 
d="M563 -21c-100 0 -186.166 23.5 -258.499 70.5s-128.166 112 -167.499 195s-59 177.833 -59 284.5v22c0 106.667 19.667 201.5 59 284.5s95.166 148.167 167.499 195.5s157.833 71 256.5 71c100 0 186.167 -23.667 258.5 -71s128.166 -112.333 167.499 -195
s59 -177.667 59 -285v-22c0 -107.333 -19.667 -202.5 -59 -285.5s-95 -147.833 -167 -194.5s-157.667 -70 -257 -70zM563.001 133c62.667 0 115.169 17.167 157.502 51.5s74.333 81.333 96 141s32.5 127.5 32.5 203.5v22c0 76 -10.833 143.833 -32.5 203.5
s-53.834 106.667 -96.501 141s-95.667 51.5 -159 51.5c-62.667 0 -115.334 -17.167 -158.001 -51.5s-74.667 -81.333 -96 -141s-32 -127.5 -32 -203.5v-22c0 -76 10.667 -143.833 32 -203.5s53.5 -106.667 96.5 -141s96.167 -51.5 159.5 -51.5z" />
    <glyph glyph-name="p" unicode="p" horiz-adv-x="1197" 
d="M44 -416l0.00195312 127l153 28v1188l-163 28v127h332l18 -132c36 49.333 79.833 87 131.5 113s111.5 39 179.5 39c89.333 0 165.666 -24.167 228.999 -72.5s111.666 -116 144.999 -203s50 -188.833 50 -305.5v-21c0 -104 -16.833 -195 -50.5 -273
s-81.834 -138.833 -144.501 -182.5s-138 -65.5 -226 -65.5c-66.667 0 -125.167 11.167 -175.5 33.5s-93.166 55.5 -128.499 99.5v-373l172 -28v-127h-522zM637.002 133c93.333 0 163.997 34 211.997 102s72 156.333 72 265v21c0 82.667 -10.667 155.5 -32 218.5
s-53.166 112.5 -95.499 148.5s-95.166 54 -158.499 54c-56 0 -104 -12.667 -144 -38s-72.333 -60 -97 -104v-527c24.667 -44.667 56.834 -79.167 96.501 -103.5s88.5 -36.5 146.5 -36.5z" />
    <glyph glyph-name="q" unicode="q" horiz-adv-x="1139" 
d="M622 -416l0.00390625 127.002l163 28v363c-34.667 -40.667 -75.834 -71.334 -123.501 -92.001s-101.834 -31 -162.501 -31c-88 0 -163.5 21.833 -226.5 65.5s-111.167 104.5 -144.5 182.5s-50 169 -50 273v21c0 116 16.667 217.667 50 305
s81.666 155.166 144.999 203.499s139.333 72.5 228 72.5c63.333 0 119.666 -11.833 168.999 -35.5s91.333 -58.167 126 -103.5l16 119h170v-1343l153 -28v-127h-513zM549.004 133.002c54.667 0 101.169 12 139.502 36s70.5 58 96.5 102v543c-26 40.667 -58.333 73 -97 97
s-84.334 36 -137.001 36c-62.667 0 -114.334 -18.167 -155.001 -54.5s-71 -86.5 -91 -150.5s-30 -137.667 -30 -221v-21c0 -109.333 22.333 -197.833 67 -265.5s113.667 -101.5 207 -101.5z" />
    <glyph glyph-name="r" unicode="r" horiz-adv-x="854" 
d="M72 0l-0.00195312 126.001l163 28v773l-163 28v127h339l17 -138l2 -19c30.667 55.333 68.5 98.666 113.5 129.999s96.5 47 154.5 47c20.667 0 41.834 -1.83301 63.501 -5.5s37.167 -7.16699 46.5 -10.5l-26 -183l-137 8c-52 3.33301 -95.667 -8.5 -131 -35.5
s-62.666 -63.167 -81.999 -108.5v-613l163 -28v-126h-523z" />
    <glyph glyph-name="s" unicode="s" horiz-adv-x="1022" 
d="M512 -21c-72.667 0 -140.669 7.33203 -204.002 21.999s-130.666 37.334 -201.999 68.001l-2 257h149l37 -155c37.333 -15.333 73.5 -26.5 108.5 -33.5s72.833 -10.5 113.5 -10.5c80 0 137.333 15.333 172 46s52 68.667 52 114c0 42.667 -17.5 78.834 -52.5 108.501
s-98.5 54.834 -190.5 75.501c-130.667 30 -226.834 70.167 -288.501 120.5s-92.5 117.5 -92.5 201.5c0 58.667 17 111.167 51 157.5s81.333 83.166 142 110.499s131.334 41 212.001 41c82 0 152.167 -9.33301 210.5 -28s109.166 -43.667 152.499 -75l10 -247h-148l-32 144
c-23.333 17.333 -51 30.666 -83 39.999s-68.667 14 -110 14c-61.333 0 -111.166 -14.333 -149.499 -43s-57.5 -64.667 -57.5 -108c0 -25.333 5.5 -47.333 16.5 -66s32.167 -35.5 63.5 -50.5s77.333 -29.833 138 -44.5c150.667 -35.333 255.834 -80.333 315.501 -135
s89.5 -122 89.5 -202c0 -91.333 -33.833 -167.833 -101.5 -229.5s-174.167 -92.5 -319.5 -92.5z" />
    <glyph glyph-name="t" unicode="t" horiz-adv-x="730" 
d="M456 -17c-80 0 -143.5 23.502 -190.5 70.502s-70.5 122.167 -70.5 225.5v657h-171v146h171v261h197v-261h235v-146h-235v-657c0 -52 10.333 -90.333 31 -115s48.334 -37 83.001 -37c23.333 0 49.333 2.16699 78 6.5s51 8.16602 67 11.499l27 -129
c-28.667 -8.66699 -63.834 -16.334 -105.501 -23.001s-80.5 -10 -116.5 -10z" />
    <glyph glyph-name="u" unicode="u" horiz-adv-x="1245" 
d="M550 -21c-117.333 0 -209 37.667 -275 113s-99 192.666 -99 351.999v483l-124 28v127h124h197v-640c0 -115.333 17 -194.666 51 -237.999s87 -65 159 -65c70 0 127.833 14.167 173.5 42.5s80.167 68.5 103.5 120.5v625l-145 28v127h145h197v-928l124 -28v-126h-301
l-13 160c-34 -58 -77.833 -102.667 -131.5 -134s-115.5 -47 -185.5 -47z" />
    <glyph glyph-name="v" unicode="v" horiz-adv-x="1206" 
d="M523 0l-385 940l-112 15v127h454v-127l-141 -20l240 -616l28 -87h6l32 87l223 616l-145 20v127h453v-127l-114 -15l-366 -940h-173z" />
    <glyph glyph-name="w" unicode="w" horiz-adv-x="1823" 
d="M458 0l-285 941l-121 14v127h447v-127l-133 -22l149 -539l34 -128h6l44 128l235 688h166l224 -686l48 -152h6l47 152l151 538l-136 21v127h437v-127l-120 -17l-280 -938h-187l-219 650l-52 174l-6 -1l-51 -173l-235 -650h-169z" />
    <glyph glyph-name="x" unicode="x" horiz-adv-x="1203" 
d="M42 0v126l120 23l323 398l-316 385l-107 23v127h424v-127l-108 -12l222 -276l216 277l-116 11v127h417v-127l-110 -23l-293 -382l337 -401l112 -23v-126h-459v126l130 11l-237 289l-230 -289l117 -11v-126h-442z" />
    <glyph glyph-name="y" unicode="y" horiz-adv-x="1192" 
d="M309 -437c-15.333 0 -35.333 1.83301 -60 5.5s-43.667 7.16699 -57 10.5l20 155c11.333 -1.33301 27 -2.5 47 -3.5s33.667 -1.5 41 -1.5c42 0 76.167 16 102.5 48s50.833 75.667 73.5 131l47 114l-383 917l-116 16v127h454v-127l-131 -20l211 -541l51 -141h6l250 682
l-138 20v127h445v-127l-112 -16l-426 -1105c-20 -52 -44.167 -98.5 -72.5 -139.5s-63 -73.167 -104 -96.5s-90.5 -35 -148.5 -35z" />
    <glyph glyph-name="z" unicode="z" horiz-adv-x="1032" 
d="M88 0v138l589 792h-403l-25 -182h-148v334h820v-134l-595 -798h461l26 183h147v-333h-872z" />
    <glyph glyph-name="braceleft" unicode="{" horiz-adv-x="701" 
d="M631 -364c-130 36.667 -222.5 94.999 -277.5 174.999s-82.5 176.667 -82.5 290v205c0 74.667 -17 132.834 -51 174.501s-86.333 62.5 -157 62.5v147c70.667 0 123 20.5 157 61.5s51 99.167 51 174.5v206c0 114 27.5 210.833 82.5 290.5s147.5 137.834 277.5 174.501
l40 -117c-73.333 -23.333 -125.5 -65.166 -156.5 -125.499s-46.5 -134.5 -46.5 -222.5v-206c0 -70 -14 -131.667 -42 -185s-70.333 -95 -127 -125c56.667 -30.667 99 -72.834 127 -126.501s42 -114.834 42 -183.501v-205c0 -88 15.5 -161.833 46.5 -221.5
s83.167 -101.5 156.5 -125.5z" />
    <glyph glyph-name="bar" unicode="|" horiz-adv-x="451" 
d="M150 -270v1726h157v-1726h-157z" />
    <glyph glyph-name="braceright" unicode="}" horiz-adv-x="701" 
d="M67 -364l-40 118.005c72 24 123.667 65.833 155 125.5s47 133.5 47 221.5v205c0 71.333 15 133.666 45 186.999s76.333 94.333 139 123c-62.667 27.333 -109 67.666 -139 120.999s-45 116.333 -45 189v206c0 88 -15.667 162.167 -47 222.5s-83 102.166 -155 125.499
l40 117c129.333 -36.667 221.5 -94.834 276.5 -174.501s82.5 -176.5 82.5 -290.5v-206c0 -75.333 17 -133.5 51 -174.5s86.667 -61.5 158 -61.5v-147c-71.333 0 -124 -20.833 -158 -62.5s-51 -99.834 -51 -174.501v-205c0 -113.333 -27.5 -210 -82.5 -290
s-147.167 -138.333 -276.5 -175z" />
    <glyph glyph-name="asciitilde" unicode="~" horiz-adv-x="1386" 
d="M952 401c-59.333 0 -113.499 10.999 -162.499 32.999s-101.833 57.667 -158.5 107c-40 32 -76.333 56 -109 72s-65.334 24 -98.001 24c-44.667 0 -82.834 -17.667 -114.501 -53s-47.5 -78 -47.5 -128l-141 18c0 60.667 13 115.834 39 165.501
s61.833 89.334 107.5 119.001s97.834 44.5 156.501 44.5s113 -11.5 163 -34.5s103.333 -57.833 160 -104.5c39.333 -34 74.833 -58.667 106.5 -74s64.5 -23 98.5 -23c44 0 82.167 19 114.5 57s48.5 82.667 48.5 134l142 -18c0 -60.667 -13.333 -116.834 -40 -168.501
s-63 -93 -109 -124s-98 -46.5 -156 -46.5z" />
    <glyph glyph-name="uni00A0" unicode="&#xa0;" horiz-adv-x="509" 
 />
    <glyph glyph-name="exclamdown" unicode="&#xa1;" horiz-adv-x="483" 
d="M143 604v-978h197v978h-197zM143 1082v-204h197v204h-197z" />
    <glyph glyph-name="cent" unicode="&#xa2;" horiz-adv-x="1118" 
d="M467 -245v236.999c-79.333 16.667 -145.833 49.834 -199.5 99.501s-94.334 111.334 -122.001 185.001s-41.5 154.834 -41.5 243.501v42c0 87.333 13.833 167.666 41.5 240.999s68.334 134.833 122.001 184.5s120.167 83.5 199.5 101.5v229h197v-220
c69.333 -8 132 -25.5 188 -52.5s103.333 -61.833 142 -104.5l9 -240h-157l-43 170c-23.333 22.667 -53.333 41 -90 55s-78 21 -124 21c-68.667 0 -124.167 -17 -166.5 -51s-73.166 -80.167 -92.499 -138.5s-29 -123.5 -29 -195.5v-42c0 -74 9.5 -140.167 28.5 -198.5
s49.667 -104.333 92 -138s98.166 -50.5 167.499 -50.5c43.333 0 83.833 9.33301 121.5 28s68 43.667 91 75s34.5 66.666 34.5 105.999h178l2 -6c2 -54.667 -12.667 -106.667 -44 -156s-74 -91.5 -128 -126.5s-114 -57.833 -180 -68.5v-230h-197z" />
    <glyph glyph-name="sterling" unicode="&#xa3;" horiz-adv-x="1179" 
d="M132 0v154.001h10c20.667 6 38.167 25.167 52.5 57.5s25 71.333 32 117s10.5 91.5 10.5 137.5l-6 149h-163v155h157l-10 270c0 136 37.333 242.833 112 320.5s174.667 116.5 300 116.5c133.333 0 236.666 -34.833 309.999 -104.5s108.666 -161.834 105.999 -276.501
l-2 -6h-189c0 78.667 -21.167 137 -63.5 175s-96.166 57 -161.499 57c-66 0 -118.333 -24.833 -157 -74.5s-58 -118.834 -58 -207.501l10 -270h419v-155h-414l6 -149c0 -60 -5.16699 -117.167 -15.5 -171.5s-25.166 -101.166 -44.499 -140.499h551l16 167h167v-321h-975z
" />
    <glyph glyph-name="currency" unicode="&#xa4;" horiz-adv-x="1461" 
d="M1220 -27l-133.002 135.001c-51.333 -41.333 -107.833 -73 -169.5 -95s-126.167 -33 -193.5 -33s-131.666 10.833 -192.999 32.5s-117.666 53.167 -168.999 94.5l-130 -133l-138 138l138 140c-33.333 50.667 -58.833 106.167 -76.5 166.5s-26.5 123.5 -26.5 189.5
c0 68 9.5 133.333 28.5 196s46.5 120 82.5 172l-146 149l138 139l143 -146c49.333 36.667 103.833 65.167 163.5 85.5s121.5 30.5 185.5 30.5c64.667 0 126.667 -10.333 186 -31s114 -49.667 164 -87l146 149l140 -140l-150 -153c34.667 -52 61.5 -108.833 80.5 -170.5
s28.5 -126.167 28.5 -193.5c0 -65.333 -8.83301 -127.833 -26.5 -187.5s-42.5 -114.834 -74.5 -165.501l142 -143zM723.998 155.001c56.667 0 109.834 11.667 159.501 35s93.334 55.833 131.001 97.5s67.167 89.834 88.5 144.501s32 113.334 32 176.001
c0 62 -10.667 120.167 -32 174.5s-50.833 102.166 -88.5 143.499s-81.334 73.666 -131.001 96.999s-102.834 35 -159.501 35c-57.333 0 -111 -11.667 -161 -35s-93.833 -55.666 -131.5 -96.999s-67.167 -89.166 -88.5 -143.499s-32 -112.5 -32 -174.5
c0 -62.667 10.667 -121.334 32 -176.001s50.833 -102.834 88.5 -144.501s81.5 -74.167 131.5 -97.5s103.667 -35 161 -35z" />
    <glyph glyph-name="yen" unicode="&#xa5;" horiz-adv-x="1386" 
d="M432 0v126l163 28v172h-375v122h375v167h-375v123h311l-333 570l-139 21v127h442v-127l-87 -15l261 -480l22 -41l4 7l18 34l261 480l-86 15v127h441v-127l-139 -20l-333 -571h312v-123h-383v-167h383v-122h-383v-172l163 -28v-126h-523z" />
    <glyph glyph-name="brokenbar" unicode="&#xa6;" horiz-adv-x="496" 
d="M150 -270v792h197v-792h-197zM150 698v758h197v-758h-197z" />
    <glyph glyph-name="section" unicode="&#xa7;" horiz-adv-x="1233" 
d="M609 -495c-98.667 0 -187.506 15.001 -266.506 45.001s-141.167 76.333 -186.5 139s-67 143 -65 241l2 6l188 2c0 -63.333 14.833 -115.5 44.5 -156.5s69.334 -71.5 119.001 -91.5s104.5 -30 164.5 -30c90.667 0 162.334 19.833 215.001 59.5s79 89.834 79 150.501
c0 40.667 -10.167 74.667 -30.5 102s-55.666 52.666 -105.999 75.999s-120.833 49 -211.5 77c-106 28 -193.333 60 -262 96s-119.667 80.333 -153 133s-50 118.334 -50 197.001c0 60.667 15.5 114.5 46.5 161.5s75.5 84.167 133.5 111.5
c-45.333 33.333 -79.166 73.166 -101.499 119.499s-33.5 101.833 -33.5 166.5c0 74 20.167 138.5 60.5 193.5s97.333 97.667 171 128s160.5 45.5 260.5 45.5c154.667 0 275.5 -37.167 362.5 -111.5s129.167 -178.833 126.5 -313.5l-3 -6h-188
c0 52.667 -12 99.834 -36 141.501s-58.167 74.5 -102.5 98.5s-97.5 36 -159.5 36c-97.333 0 -170.833 -19.833 -220.5 -59.5s-74.5 -89.834 -74.5 -150.501c0 -44 9.16699 -80.167 27.5 -108.5s52.333 -53.5 102 -75.5s121.5 -46 215.5 -72
c108.667 -30.667 197.334 -64 266.001 -100s119.334 -79.667 152.001 -131s49 -116 49 -194c0 -62.667 -16 -117.334 -48 -164.001s-77.333 -83.334 -136 -110.001c46.667 -34 81.667 -73.667 105 -119s35 -100.666 35 -165.999c0 -114.667 -44.333 -204.5 -133 -269.5
s-208 -97.5 -358 -97.5zM794.994 240.001c48.667 13.333 86.333 36.6689 113 70.002s40 72.666 40 117.999c0 40.667 -10.333 75.167 -31 103.5s-56.334 54.666 -107.001 78.999s-121 50.5 -211 78.5c-32 8 -61.833 16.333 -89.5 25s-53.5 17.667 -77.5 27
c-48.667 -12.667 -85 -35.667 -109 -69s-36 -73 -36 -119c0 -44.667 9.33301 -81.5 28 -110.5s52.834 -55 102.501 -78s121.5 -47.5 215.5 -73.5l90 -27.5c25.333 -7.66699 49.333 -15.5 72 -23.5z" />
    <glyph glyph-name="dieresis" unicode="&#xa8;" horiz-adv-x="710" 
d="M463 1349v211h207v-211h-207zM40 1349v211h207v-211h-207z" />
    <glyph glyph-name="copyright" unicode="&#xa9;" horiz-adv-x="1595" 
d="M802 -21c-98.667 0 -191.001 19.167 -277.001 57.5s-161.333 91.5 -226 159.5s-115.334 147.5 -152.001 238.5s-55 189.167 -55 294.5s18.333 203.166 55 293.499s87.334 169.5 152.001 237.5s140 121 226 159s178.333 57 277 57c98 0 190 -19 276 -57
s161.333 -91 226 -159s115.334 -147.167 152.001 -237.5s55 -188.166 55 -293.499s-18.333 -203.5 -55 -294.5s-87.5 -170.5 -152.5 -238.5s-140.333 -121.167 -226 -159.5s-177.5 -57.5 -275.5 -57.5zM801.999 100c81.333 0 157.5 15.999 228.5 47.999
s133.5 76.667 187.5 134s96.167 124.166 126.5 200.499s45.5 158.5 45.5 246.5s-15.167 169.833 -45.5 245.5s-72.5 141.834 -126.5 198.501s-116.5 101 -187.5 133s-147.167 48 -228.5 48c-82 0 -158.667 -15.833 -230 -47.5s-134 -76 -188 -133
s-96.167 -123.333 -126.5 -199s-45.5 -157.5 -45.5 -245.5s15.167 -170.167 45.5 -246.5s72.5 -143.166 126.5 -200.499s116.667 -102 188 -134s148 -48 230 -48zM787.999 281.999c-106.667 0 -191.502 35.333 -254.502 106s-94.5 164.334 -94.5 281.001v119
c0 115.333 31.5 208.666 94.5 279.999s147.833 107 254.5 107c104.667 0 186.334 -26.333 245.001 -79s86.667 -128.667 84 -228l-2 -6h-146c0 63.333 -15.167 109.5 -45.5 138.5s-75.5 43.5 -135.5 43.5c-63.333 0 -112 -23.5 -146 -70.5s-51 -108.5 -51 -184.5v-120
c0 -78 17 -140.333 51 -187s82.667 -70 146 -70c60 0 105 14.333 135 43s45 75.667 45 141h146l2 -6c2.66699 -100.667 -25.166 -177.167 -83.499 -229.5s-139.833 -78.5 -244.5 -78.5z" />
    <glyph glyph-name="ordfeminine" unicode="&#xaa;" horiz-adv-x="894" 
d="M355 692c-79.333 0 -140.668 20.332 -184.001 60.999s-65 96.334 -65 167.001c0 73.333 28 130 84 170s138 60 246 60h138v52c0 42 -9.83301 74.333 -29.5 97s-48.834 34 -87.501 34c-44.667 0 -79.167 -9 -103.5 -27s-36.5 -43.333 -36.5 -76l-163 13l-1 6
c-4 65.333 22.333 119.666 79 162.999s131.667 65 225 65c88.667 0 159.167 -23.667 211.5 -71s78.5 -115.666 78.5 -204.999v-314c0 -34 2 -65.667 6 -95s10.667 -58 20 -86h-175c-5.33301 14 -9.66602 29 -12.999 45s-6 32.667 -8 50c-22 -31.333 -51.667 -57.333 -89 -78
s-81.666 -31 -132.999 -31zM396.998 830.999c22.667 0 46.168 4.66797 70.501 14.001s46.166 21.166 65.499 35.499s33 29.5 41 45.5v110h-137c-50 0 -89 -11 -117 -33s-42 -48.333 -42 -79c0 -30 9.83301 -53 29.5 -69s49.5 -24 89.5 -24z" />
    <glyph glyph-name="guillemotleft" unicode="&#xab;" horiz-adv-x="935" 
d="M353 117l-295 389v19l295 389h148l-255 -399l255 -398h-148zM687 117l-295 389v19l295 389h148l-255 -399l255 -398h-148z" />
    <glyph glyph-name="logicalnot" unicode="&#xac;" horiz-adv-x="1122" 
d="M758 375v262h-637v165h834v-427h-197z" />
    <glyph glyph-name="uni00AD" unicode="&#xad;" horiz-adv-x="797" 
d="M154 538v154h489v-154h-489z" />
    <glyph glyph-name="registered" unicode="&#xae;" horiz-adv-x="1595" 
d="M802 -21c-98.667 0 -191.001 19.167 -277.001 57.5s-161.333 91.5 -226 159.5s-115.334 147.5 -152.001 238.5s-55 189.167 -55 294.5s18.333 203.166 55 293.499s87.334 169.5 152.001 237.5s140 121 226 159s178.333 57 277 57c98 0 190 -19 276 -57
s161.333 -91 226 -159s115.334 -147.167 152.001 -237.5s55 -188.166 55 -293.499s-18.333 -203.5 -55 -294.5s-87.5 -170.5 -152.5 -238.5s-140.333 -121.167 -226 -159.5s-177.5 -57.5 -275.5 -57.5zM801.999 100c81.333 0 157.5 15.999 228.5 47.999
s133.5 76.667 187.5 134s96.167 124.166 126.5 200.499s45.5 158.5 45.5 246.5s-15.167 169.833 -45.5 245.5s-72.5 141.834 -126.5 198.501s-116.5 101 -187.5 133s-147.167 48 -228.5 48c-82 0 -158.667 -15.833 -230 -47.5s-134 -76 -188 -133
s-96.167 -123.333 -126.5 -199s-45.5 -157.5 -45.5 -245.5s15.167 -170.167 45.5 -246.5s72.5 -143.166 126.5 -200.499s116.667 -102 188 -134s148 -48 230 -48zM507.999 315.999v850.001h280c101.333 0 180.666 -21.833 237.999 -65.5s86 -107.5 86 -191.5
c0 -40.667 -11 -76.834 -33 -108.501s-53.667 -57.834 -95 -78.501c44 -17.333 75.833 -43.666 95.5 -78.999s29.5 -78 29.5 -128v-56c0 -27.333 1.16699 -51.833 3.5 -73.5s6.83301 -39.5 13.5 -53.5v-16h-153c-6 14 -9.66699 34.5 -11 61.5s-2 54.5 -2 82.5v54
c0 48 -11.167 83.333 -33.5 106s-59.166 34 -110.499 34h-159v-338h-149zM656.999 784l152 -0.000976562c43.333 0.666992 80 11.5 110 32.5s45 50.167 45 87.5c0 48.667 -13 82.834 -39 102.501s-71.667 29.5 -137 29.5h-131v-252z" />
    <glyph glyph-name="macron" unicode="&#xaf;" horiz-adv-x="801" 
d="M40 1350v146h721v-146h-721z" />
    <glyph glyph-name="degree" unicode="&#xb0;" horiz-adv-x="757" 
d="M380 959c-47.333 0 -90.334 11.5 -129.001 34.5s-69.5 53.833 -92.5 92.5s-34.5 82 -34.5 130c0 47.333 11.667 90.666 35 129.999s54.333 71 93 95s81.334 36 128.001 36c46 0 88.167 -12 126.5 -36s69 -55.667 92 -95s34.5 -82.666 34.5 -129.999
c0 -48 -11.5 -91.333 -34.5 -130s-53.667 -69.5 -92 -92.5s-80.5 -34.5 -126.5 -34.5zM379.999 1089c34.667 0 63.834 12 87.501 36s35.5 54.333 35.5 91s-11.833 67.5 -35.5 92.5s-52.834 37.5 -87.501 37.5c-35.333 0 -65.166 -12.5 -89.499 -37.5
s-36.5 -55.833 -36.5 -92.5s12.167 -67 36.5 -91s54.166 -36 89.499 -36z" />
    <glyph glyph-name="plusminus" unicode="&#xb1;" horiz-adv-x="1057" 
d="M455 289v413h-380v154h380v411h178v-411h358v-154h-358v-413h-178zM124 5v155h835v-155h-835z" />
    <glyph glyph-name="uni00B2" unicode="&#xb2;" horiz-adv-x="827" 
d="M714 667l-0.000976562 130h-361l-2 6l153 135c51.333 46.667 92 85.334 122 116.001s51.333 59.667 64 87s19 58.666 19 93.999c0 77.333 -25.333 137.333 -76 180s-121 64 -211 64c-62.667 0 -117.167 -10.667 -163.5 -32s-81.833 -50.166 -106.5 -86.499
s-35.667 -76.5 -33 -120.5l2 -6h161c0 33.333 12.167 60.666 36.5 81.999s58.833 32 103.5 32c38.667 0 67.334 -10.333 86.001 -31s28 -47.667 28 -81c0 -28.667 -7.16699 -55.5 -21.5 -80.5s-44.5 -57.167 -90.5 -96.5l-302 -262v-130h592z" />
    <glyph glyph-name="uni00B3" unicode="&#xb3;" horiz-adv-x="845" 
d="M424 1137l-132.999 0.00195312v-126h133c48.667 0 85 -9.33301 109 -28s36 -49 36 -91c0 -32 -13.833 -57.833 -41.5 -77.5s-65.5 -29.5 -113.5 -29.5c-42.667 0 -76.5 9.5 -101.5 28.5s-37.5 43.833 -37.5 74.5h-163l-1 -6
c-2.66699 -49.333 9.66602 -90.833 36.999 -124.5s64.333 -59.167 111 -76.5s98.334 -26 155.001 -26c97.333 0 176 20.667 236 62s90 99 90 173c0 92 -48.667 154.333 -146 187c41.333 17.333 73.833 41.166 97.5 71.499s35.5 63.833 35.5 100.5
c0 73.333 -28 129.833 -84 169.5s-132.333 59.5 -229 59.5c-84.667 0 -155.167 -19.833 -211.5 -59.5s-82.5 -90.834 -78.5 -153.501l2 -6h162c0 26.667 11.667 48 35 64s53.666 24 90.999 24c46 0 81 -9.5 105 -28.5s36 -43.167 36 -72.5c0 -72.667 -43.667 -109 -131 -109
z" />
    <glyph glyph-name="acute" unicode="&#xb4;" horiz-adv-x="496" 
d="M40 1288l184 272h230l2 -6l-269 -266h-138h-9z" />
    <glyph glyph-name="uni00B5" unicode="&#xb5;" horiz-adv-x="1315" 
d="M229 -416l-0.000976562 1343l-163 28v127h163h196v-622c0 -126 18.333 -212 55 -258s89 -69 157 -69c66 0 119.333 12.167 160 36.5s71.334 60.166 92.001 107.499v650l-163 28v127h360v-928l163 -28v-126h-340l-9 109c-29.333 -42.667 -65.333 -75 -108 -97
s-91.667 -33 -147 -33c-48 0 -90 5.5 -126 16.5s-67.333 28.167 -94 51.5v-463h-196z" />
    <glyph glyph-name="paragraph" unicode="&#xb6;" horiz-adv-x="1090" 
d="M490 0l0.000976562 126.001l163 28v366h-83c-104 0 -192.667 19.667 -266 59s-129.333 94.166 -168 164.499s-58 151.833 -58 244.5c0 92 19.5 173.167 58.5 243.5s95.167 125.333 168.5 165s161.666 59.5 264.999 59.5h443v-127l-163 -28v-1147l163 -28v-126h-523z" />
    <glyph glyph-name="periodcentered" unicode="&#xb7;" horiz-adv-x="516" 
d="M160 630v202h197v-202h-197z" />
    <glyph glyph-name="cedilla" unicode="&#xb8;" horiz-adv-x="470" 
d="M48 -435l-7 109.002c48 0 86.5 8 115.5 24s43.5 39.667 43.5 71s-12 53 -36 65s-65.333 20.333 -124 25l40 173h141l-20 -90c44 -7.33301 80.333 -24.333 109 -51s43 -66.334 43 -119.001c0 -62.667 -26.333 -112.834 -79 -150.501s-128 -56.5 -226 -56.5z" />
    <glyph glyph-name="uni00B9" unicode="&#xb9;" horiz-adv-x="547" 
d="M396 665v812l-301 -23v-134h127v-655h174z" />
    <glyph glyph-name="ordmasculine" unicode="&#xba;" horiz-adv-x="941" 
d="M468 691c-106 0 -190.332 30.833 -252.999 92.5s-94 142.167 -94 241.5v117c0 98.667 31.167 179.167 93.5 241.5s146.166 93.5 251.499 93.5s189.333 -31.167 252 -93.5s94 -142.833 94 -241.5v-117c0 -99.333 -31.167 -179.833 -93.5 -241.5
s-145.833 -92.5 -250.5 -92.5zM468.001 832c55.333 0 97.667 17.667 127 53s44 82 44 140v117c0 56 -14.833 101.833 -44.5 137.5s-72.5 53.5 -128.5 53.5s-98.833 -17.833 -128.5 -53.5s-44.5 -81.5 -44.5 -137.5v-117c0 -58.667 14.667 -105.5 44 -140.5
s73 -52.5 131 -52.5z" />
    <glyph glyph-name="guillemotright" unicode="&#xbb;" horiz-adv-x="938" 
d="M105 152l254 398l-254 399h148l295 -389v-19l-295 -389h-148zM450 152l254 398l-254 399h148l295 -389v-19l-295 -389h-148z" />
    <glyph glyph-name="onequarter" unicode="&#xbc;" horiz-adv-x="1443" 
d="M310 664v655h-127v134l301 23v-812h-174zM430 118l-109 67l711 1138l109 -67zM1210 0v152h-417l-8 102l421 547h174v-519h126v-130h-126v-152h-170zM967 282h243v310l-6 1l-13 -22z" />
    <glyph glyph-name="onehalf" unicode="&#xbd;" horiz-adv-x="1480" 
d="M443 118l-109 67l711 1138l109 -67zM310 664v655h-127v134l301 23v-812h-174zM932 0l0.000976562 129.999l302 262c46 39.333 76.167 71.5 90.5 96.5s21.5 51.833 21.5 80.5c0 33.333 -9.33301 60.333 -28 81s-47.334 31 -86.001 31
c-44.667 0 -79.167 -10.667 -103.5 -32s-36.5 -48.666 -36.5 -81.999h-161l-2 6c-2.66699 44 8.33301 84 33 120s60.167 64.833 106.5 86.5s100.833 32.5 163.5 32.5c90 0 160.333 -21.333 211 -64s76 -102.667 76 -180c0 -35.333 -6.33301 -66.666 -19 -93.999
s-34 -56.333 -64 -87s-70.667 -69.334 -122 -116.001l-153 -135l2 -6h361v-130h-592z" />
    <glyph glyph-name="threequarters" unicode="&#xbe;" horiz-adv-x="1690" 
d="M614 118l-109 67l711 1138l109 -67zM1399 0v152h-417l-8 102l421 547h174v-519h126v-130h-126v-152h-170zM1156 282h243v310l-6 1l-13 -22zM430 656c-56.667 0 -108.335 8.66504 -155.002 25.998s-83.667 42.833 -111 76.5s-39.666 75.167 -36.999 124.5l1 6h163
c0 -30.667 12.5 -55.5 37.5 -74.5s58.833 -28.5 101.5 -28.5c48 0 85.833 9.83301 113.5 29.5s41.5 45.5 41.5 77.5c0 42 -12 72.333 -36 91s-60.333 28 -109 28h-133v126h133c87.333 0 131 36.333 131 109c0 29.333 -12 53.5 -36 72.5s-59 28.5 -105 28.5
c-37.333 0 -67.666 -8 -90.999 -24s-35 -37.333 -35 -64h-162l-2 6c-4 62.667 22.167 113.834 78.5 153.501s126.833 59.5 211.5 59.5c96.667 0 173 -19.833 229 -59.5s84 -96.167 84 -169.5c0 -36.667 -11.833 -70.167 -35.5 -100.5s-56.167 -54.166 -97.5 -71.499
c97.333 -32.667 146 -95 146 -187c0 -74 -30 -131.667 -90 -173s-138.667 -62 -236 -62z" />
    <glyph glyph-name="questiondown" unicode="&#xbf;" horiz-adv-x="890" 
d="M588 673c0 -48.667 -1.66797 -88.665 -5.00098 -119.998s-9.83301 -58.333 -19.5 -81s-24.5 -45.334 -44.5 -68.001s-47 -49.334 -81 -80.001c-47.333 -42.667 -84.166 -82.334 -110.499 -119.001s-45 -72.334 -56 -107.001s-16.5 -70 -16.5 -106
c0 -70.667 18.833 -125 56.5 -163s91.5 -57 161.5 -57c60.667 0 112.167 16.5 154.5 49.5s63.5 81.5 63.5 145.5h188l3 -6c1.33301 -71.333 -15.5 -133.666 -50.5 -186.999s-83.5 -94.666 -145.5 -123.999s-133 -44 -213 -44c-131.333 0 -233.333 33.5 -306 100.5
s-109 160.5 -109 280.5c0 57.333 9.5 109.5 28.5 156.5s47.5 94 85.5 141s85.667 99.5 143 157.5c23.333 24 40.333 45.833 51 65.5s17.5 42 20.5 67s4.5 57.833 4.5 98.5h197zM589.999 1083v-208h-205v208h205z" />
    <glyph glyph-name="Agrave" unicode="&#xc0;" horiz-adv-x="1533" 
d="M70 0v126l108 15l509 1315h169l500 -1315l107 -15v-126h-418v126l110 19l-96 268h-583l-99 -268l110 -19v-126h-417zM537 578h462l-214 592l-12 33h-6l-12 -33zM891 1582h-9h-138l-269 266l2 6h230z" />
    <glyph glyph-name="Aacute" unicode="&#xc1;" horiz-adv-x="1533" 
d="M70 0v126l108 15l509 1315h169l500 -1315l107 -15v-126h-418v126l110 19l-96 268h-583l-99 -268l110 -19v-126h-417zM537 578h462l-214 592l-12 33h-6l-12 -33zM649 1582l184 272h230l2 -6l-269 -266h-138h-9z" />
    <glyph glyph-name="Acircumflex" unicode="&#xc2;" horiz-adv-x="1533" 
d="M70 0v126l108 15l509 1315h169l500 -1315l107 -15v-126h-418v126l110 19l-96 268h-583l-99 -268l110 -19v-126h-417zM537 578h462l-214 592l-12 33h-6l-12 -33zM463 1591v26l246 237h119l248 -238v-25h-161l-147 148l-145 -148h-160z" />
    <glyph glyph-name="Atilde" unicode="&#xc3;" horiz-adv-x="1533" 
d="M70 0v126l108 15l509 1315h169l500 -1315l107 -15v-126h-418v126l110 19l-96 268h-583l-99 -268l110 -19v-126h-417zM537 578h462l-214 592l-12 33h-6l-12 -33zM530 1599l-106.999 22.001c0 42.667 9.33301 81.667 28 117s43.667 63.833 75 85.5s66.333 32.5 105 32.5
c30 0 62 -8.33301 96 -25l98.5 -50c31.667 -16.667 58.834 -25 81.501 -25c27.333 0 51 10.833 71 32.5s30 48.5 30 80.5l108 -28c0 -42.667 -9.33301 -81.334 -28 -116.001s-43.834 -62.167 -75.501 -82.5s-66.834 -30.5 -105.501 -30.5c-32.667 0 -66 8.16699 -100 24.5
s-66.167 32.833 -96.5 49.5s-56.833 25 -79.5 25c-28 0 -51.833 -10.833 -71.5 -32.5s-29.5 -48.167 -29.5 -79.5z" />
    <glyph glyph-name="Adieresis" unicode="&#xc4;" horiz-adv-x="1533" 
d="M70 0v126l108 15l509 1315h169l500 -1315l107 -15v-126h-418v126l110 19l-96 268h-583l-99 -268l110 -19v-126h-417zM537 578h462l-214 592l-12 33h-6l-12 -33zM878 1643v211h207v-211h-207zM455 1643v211h207v-211h-207z" />
    <glyph glyph-name="Aring" unicode="&#xc5;" horiz-adv-x="1533" 
d="M70 0v126l108 15l509 1315h169l500 -1315l107 -15v-126h-418v126l110 19l-96 268h-583l-99 -268l110 -19v-126h-417zM537 578h462l-214 592l-12 33h-6l-12 -33zM771 1519c-58 0 -107.167 18.001 -147.5 54.001s-60.5 82.667 -60.5 140c0 56 20.167 103 60.5 141
s89.5 57 147.5 57c56.667 0 105 -18.833 145 -56.5s60 -84.834 60 -141.501c0 -57.333 -20 -104 -60 -140s-88.333 -54 -145 -54zM771 1609c28 0 51.998 9.83301 71.998 29.5s30 44.5 30 74.5s-10 55.333 -30 76s-44 31 -72 31c-29.333 0 -54.166 -10.333 -74.499 -31
s-30.5 -46 -30.5 -76c0 -28.667 10.333 -53.167 31 -73.5s45.334 -30.5 74.001 -30.5z" />
    <glyph glyph-name="AE" unicode="&#xc6;" horiz-adv-x="2096" 
d="M51 0v126l141 20l793 1310h967v-322h-168l-15 167h-508l20 -466h590v-155h-584l22 -526h522l16 167h167v-321h-1058v126l156 27l-8 197h-556l-121 -210l82 -14v-126h-458zM651 529h446l-31 710l-5 2l-8 -14z" />
    <glyph glyph-name="Ccedilla" unicode="&#xc7;" horiz-adv-x="1290" 
d="M739 -21c-146 0 -267.833 31.999 -365.5 95.999s-171 151.667 -220 263s-73.5 237.666 -73.5 378.999v21c0 142.667 25.667 269.5 77 380.5s125 198.5 221 262.5s210.667 96 344 96c94 0 180 -14.667 258 -44s142.667 -66.666 194 -111.999v-314h-157l-21 230
c-21.333 16.667 -45.833 30.667 -73.5 42s-58.334 20 -92.001 26s-70.167 9 -109.5 9c-95.333 0 -176 -24.5 -242 -73.5s-116 -116.5 -150 -202.5s-51 -185.333 -51 -298v-23c0 -122 18.167 -226.167 54.5 -312.5s89.333 -152.166 159 -197.499s154.5 -68 254.5 -68
c46.667 0 92.334 5.66699 137.001 17s81.667 26 111 44l22 203h154v-316c-54.667 -34 -120 -60.5 -196 -79.5s-154.333 -28.5 -235 -28.5zM615 -435.001l-7 109.002c48 0 86.5 8 115.5 24s43.5 39.667 43.5 71s-12 53 -36 65s-65.333 20.333 -124 25l40 173h141l-20 -90
c44 -7.33301 80.333 -24.333 109 -51s43 -66.334 43 -119.001c0 -62.667 -26.333 -112.834 -79 -150.501s-128 -56.5 -226 -56.5z" />
    <glyph glyph-name="Egrave" unicode="&#xc8;" horiz-adv-x="1306" 
d="M81 0v126l163 28v1147l-163 28v127h1078v-350h-158l-22 198h-538v-474h537v-155h-537v-527h570l22 201h157v-349h-1109zM774 1582h-9h-138l-269 266l2 6h230z" />
    <glyph glyph-name="Eacute" unicode="&#xc9;" horiz-adv-x="1306" 
d="M81 0v126l163 28v1147l-163 28v127h1078v-350h-158l-22 198h-538v-474h537v-155h-537v-527h570l22 201h157v-349h-1109zM532 1582l184 272h230l2 -6l-269 -266h-138h-9z" />
    <glyph glyph-name="Ecircumflex" unicode="&#xca;" horiz-adv-x="1306" 
d="M81 0v126l163 28v1147l-163 28v127h1078v-350h-158l-22 198h-538v-474h537v-155h-537v-527h570l22 201h157v-349h-1109zM346 1591v26l246 237h119l248 -238v-25h-161l-147 148l-145 -148h-160z" />
    <glyph glyph-name="Edieresis" unicode="&#xcb;" horiz-adv-x="1306" 
d="M81 0v126l163 28v1147l-163 28v127h1078v-350h-158l-22 198h-538v-474h537v-155h-537v-527h570l22 201h157v-349h-1109zM761 1643v211h207v-211h-207zM338 1643v211h207v-211h-207z" />
    <glyph glyph-name="Igrave" unicode="&#xcc;" horiz-adv-x="685" 
d="M81 0v126l163 28v1147l-163 28v127h523v-127l-163 -28v-1147l163 -28v-126h-523zM463 1582h-9h-138l-269 266l2 6h230z" />
    <glyph glyph-name="Iacute" unicode="&#xcd;" horiz-adv-x="685" 
d="M81 0v126l163 28v1147l-163 28v127h523v-127l-163 -28v-1147l163 -28v-126h-523zM221 1582l184 272h230l2 -6l-269 -266h-138h-9z" />
    <glyph glyph-name="Icircumflex" unicode="&#xce;" horiz-adv-x="685" 
d="M81 0v126l163 28v1147l-163 28v127h523v-127l-163 -28v-1147l163 -28v-126h-523zM35 1591v26l246 237h119l248 -238v-25h-161l-147 148l-145 -148h-160z" />
    <glyph glyph-name="Idieresis" unicode="&#xcf;" horiz-adv-x="685" 
d="M81 0v126l163 28v1147l-163 28v127h523v-127l-163 -28v-1147l163 -28v-126h-523zM450 1643v211h207v-211h-207zM27 1643v211h207v-211h-207z" />
    <glyph glyph-name="Eth" unicode="&#xd0;" horiz-adv-x="1356" 
d="M81 0l-0.00195312 126l163 28v1147l-163 28v127h163h407c128.667 0 240.834 -30.667 336.501 -92s170.167 -145.666 223.5 -252.999s80 -230 80 -368v-31c0 -134.667 -25.667 -255.834 -77 -363.501s-124.166 -192.667 -218.499 -255s-205.833 -93.5 -334.5 -93.5h-580z
M440.998 154h210c92 0 171 25.167 237 75.5s116.833 117.666 152.5 201.999s53.5 177.833 53.5 280.5v33c0 106 -17.833 200.833 -53.5 284.5s-86.5 149.834 -152.5 198.501s-145 73 -237 73h-210v-1147zM80.998 653v155h603v-155h-603z" />
    <glyph glyph-name="Ntilde" unicode="&#xd1;" horiz-adv-x="1592" 
d="M83 0v126l163 28v1147l-163 28v127h163h199l714 -1135l6 2v978l-179 28v127h360h163v-127l-163 -28v-1301h-180l-733 1141l-6 -2v-985l179 -28v-126h-523zM556 1599l-106.999 22.001c0 42.667 9.33301 81.667 28 117s43.667 63.833 75 85.5s66.333 32.5 105 32.5
c30 0 62 -8.33301 96 -25l98.5 -50c31.667 -16.667 58.834 -25 81.501 -25c27.333 0 51 10.833 71 32.5s30 48.5 30 80.5l108 -28c0 -42.667 -9.33301 -81.334 -28 -116.001s-43.834 -62.167 -75.501 -82.5s-66.834 -30.5 -105.501 -30.5c-32.667 0 -66 8.16699 -100 24.5
s-66.167 32.833 -96.5 49.5s-56.833 25 -79.5 25c-28 0 -51.833 -10.833 -71.5 -32.5s-29.5 -48.167 -29.5 -79.5z" />
    <glyph glyph-name="Ograve" unicode="&#xd2;" horiz-adv-x="1351" 
d="M675 -21c-94 0 -178.333 18 -253 54s-138.167 86.833 -190.5 152.5s-92.333 143.5 -120 233.5s-41.5 189.333 -41.5 298v21c0 108 13.833 207.167 41.5 297.5s67.667 168.5 120 234.5s115.833 117 190.5 153s159 54 253 54c99.333 0 186.666 -18 261.999 -54
s138.5 -87 189.5 -153s89.5 -144.167 115.5 -234.5s39 -189.5 39 -297.5v-21c0 -108.667 -13 -208 -39 -298s-64.5 -167.833 -115.5 -233.5s-114.167 -116.5 -189.5 -152.5s-162.666 -54 -261.999 -54zM675 143c96.667 0 174.833 24 234.5 72s103.5 115.167 131.5 201.5
s42 186.5 42 300.5v23c0 113.333 -14.167 212.833 -42.5 298.5s-72.5 152.667 -132.5 201s-137.667 72.5 -233 72.5c-87.333 0 -161.333 -24.333 -222 -73s-106.667 -115.834 -138 -201.501s-47 -184.834 -47 -297.501v-23c0 -113.333 15.667 -213.166 47 -299.499
s77.333 -153.666 138 -201.999s134.667 -72.5 222 -72.5zM796.999 1582h-9h-138l-269 266l2 6h230z" />
    <glyph glyph-name="Oacute" unicode="&#xd3;" horiz-adv-x="1351" 
d="M675 -21c-94 0 -178.333 18 -253 54s-138.167 86.833 -190.5 152.5s-92.333 143.5 -120 233.5s-41.5 189.333 -41.5 298v21c0 108 13.833 207.167 41.5 297.5s67.667 168.5 120 234.5s115.833 117 190.5 153s159 54 253 54c99.333 0 186.666 -18 261.999 -54
s138.5 -87 189.5 -153s89.5 -144.167 115.5 -234.5s39 -189.5 39 -297.5v-21c0 -108.667 -13 -208 -39 -298s-64.5 -167.833 -115.5 -233.5s-114.167 -116.5 -189.5 -152.5s-162.666 -54 -261.999 -54zM675 143c96.667 0 174.833 24 234.5 72s103.5 115.167 131.5 201.5
s42 186.5 42 300.5v23c0 113.333 -14.167 212.833 -42.5 298.5s-72.5 152.667 -132.5 201s-137.667 72.5 -233 72.5c-87.333 0 -161.333 -24.333 -222 -73s-106.667 -115.834 -138 -201.501s-47 -184.834 -47 -297.501v-23c0 -113.333 15.667 -213.166 47 -299.499
s77.333 -153.666 138 -201.999s134.667 -72.5 222 -72.5zM554.999 1582l184 272h230l2 -6l-269 -266h-138h-9z" />
    <glyph glyph-name="Ocircumflex" unicode="&#xd4;" horiz-adv-x="1351" 
d="M675 -21c-94 0 -178.333 18 -253 54s-138.167 86.833 -190.5 152.5s-92.333 143.5 -120 233.5s-41.5 189.333 -41.5 298v21c0 108 13.833 207.167 41.5 297.5s67.667 168.5 120 234.5s115.833 117 190.5 153s159 54 253 54c99.333 0 186.666 -18 261.999 -54
s138.5 -87 189.5 -153s89.5 -144.167 115.5 -234.5s39 -189.5 39 -297.5v-21c0 -108.667 -13 -208 -39 -298s-64.5 -167.833 -115.5 -233.5s-114.167 -116.5 -189.5 -152.5s-162.666 -54 -261.999 -54zM675 143c96.667 0 174.833 24 234.5 72s103.5 115.167 131.5 201.5
s42 186.5 42 300.5v23c0 113.333 -14.167 212.833 -42.5 298.5s-72.5 152.667 -132.5 201s-137.667 72.5 -233 72.5c-87.333 0 -161.333 -24.333 -222 -73s-106.667 -115.834 -138 -201.501s-47 -184.834 -47 -297.501v-23c0 -113.333 15.667 -213.166 47 -299.499
s77.333 -153.666 138 -201.999s134.667 -72.5 222 -72.5zM368.999 1591v26l246 237h119l248 -238v-25h-161l-147 148l-145 -148h-160z" />
    <glyph glyph-name="Otilde" unicode="&#xd5;" horiz-adv-x="1351" 
d="M675 -21c-94 0 -178.333 18 -253 54s-138.167 86.833 -190.5 152.5s-92.333 143.5 -120 233.5s-41.5 189.333 -41.5 298v21c0 108 13.833 207.167 41.5 297.5s67.667 168.5 120 234.5s115.833 117 190.5 153s159 54 253 54c99.333 0 186.666 -18 261.999 -54
s138.5 -87 189.5 -153s89.5 -144.167 115.5 -234.5s39 -189.5 39 -297.5v-21c0 -108.667 -13 -208 -39 -298s-64.5 -167.833 -115.5 -233.5s-114.167 -116.5 -189.5 -152.5s-162.666 -54 -261.999 -54zM675 143c96.667 0 174.833 24 234.5 72s103.5 115.167 131.5 201.5
s42 186.5 42 300.5v23c0 113.333 -14.167 212.833 -42.5 298.5s-72.5 152.667 -132.5 201s-137.667 72.5 -233 72.5c-87.333 0 -161.333 -24.333 -222 -73s-106.667 -115.834 -138 -201.501s-47 -184.834 -47 -297.501v-23c0 -113.333 15.667 -213.166 47 -299.499
s77.333 -153.666 138 -201.999s134.667 -72.5 222 -72.5zM435.999 1599l-106.999 22.001c0 42.667 9.33301 81.667 28 117s43.667 63.833 75 85.5s66.333 32.5 105 32.5c30 0 62 -8.33301 96 -25l98.5 -50c31.667 -16.667 58.834 -25 81.501 -25c27.333 0 51 10.833 71 32.5
s30 48.5 30 80.5l108 -28c0 -42.667 -9.33301 -81.334 -28 -116.001s-43.834 -62.167 -75.501 -82.5s-66.834 -30.5 -105.501 -30.5c-32.667 0 -66 8.16699 -100 24.5s-66.167 32.833 -96.5 49.5s-56.833 25 -79.5 25c-28 0 -51.833 -10.833 -71.5 -32.5
s-29.5 -48.167 -29.5 -79.5z" />
    <glyph glyph-name="Odieresis" unicode="&#xd6;" horiz-adv-x="1351" 
d="M675 -21c-94 0 -178.333 18 -253 54s-138.167 86.833 -190.5 152.5s-92.333 143.5 -120 233.5s-41.5 189.333 -41.5 298v21c0 108 13.833 207.167 41.5 297.5s67.667 168.5 120 234.5s115.833 117 190.5 153s159 54 253 54c99.333 0 186.666 -18 261.999 -54
s138.5 -87 189.5 -153s89.5 -144.167 115.5 -234.5s39 -189.5 39 -297.5v-21c0 -108.667 -13 -208 -39 -298s-64.5 -167.833 -115.5 -233.5s-114.167 -116.5 -189.5 -152.5s-162.666 -54 -261.999 -54zM675 143c96.667 0 174.833 24 234.5 72s103.5 115.167 131.5 201.5
s42 186.5 42 300.5v23c0 113.333 -14.167 212.833 -42.5 298.5s-72.5 152.667 -132.5 201s-137.667 72.5 -233 72.5c-87.333 0 -161.333 -24.333 -222 -73s-106.667 -115.834 -138 -201.501s-47 -184.834 -47 -297.501v-23c0 -113.333 15.667 -213.166 47 -299.499
s77.333 -153.666 138 -201.999s134.667 -72.5 222 -72.5zM783.999 1643v211h207v-211h-207zM360.999 1643v211h207v-211h-207z" />
    <glyph glyph-name="multiply" unicode="&#xd7;" horiz-adv-x="1070" 
d="M205 225l-126 126l327 334l-327 334l126 126l326 -333l327 333l126 -126l-328 -334l328 -334l-126 -126l-327 332z" />
    <glyph glyph-name="Oslash" unicode="&#xd8;" horiz-adv-x="1351" 
d="M675 -21c-94 0 -178.333 18 -253 54s-138.167 86.833 -190.5 152.5s-92.333 143.5 -120 233.5s-41.5 189.333 -41.5 298v21c0 108 13.833 207.167 41.5 297.5s67.667 168.5 120 234.5s115.833 117 190.5 153s159 54 253 54c99.333 0 186.666 -18 261.999 -54
s138.5 -87 189.5 -153s89.5 -144.167 115.5 -234.5s39 -189.5 39 -297.5v-21c0 -108.667 -13 -208 -39 -298s-64.5 -167.833 -115.5 -233.5s-114.167 -116.5 -189.5 -152.5s-162.666 -54 -261.999 -54zM675 143c96.667 0 174.833 24 234.5 72s103.5 115.167 131.5 201.5
s42 186.5 42 300.5v23c0 113.333 -14.167 212.833 -42.5 298.5s-72.5 152.667 -132.5 201s-137.667 72.5 -233 72.5c-87.333 0 -161.333 -24.333 -222 -73s-106.667 -115.834 -138 -201.501s-47 -184.834 -47 -297.501v-23c0 -113.333 15.667 -213.166 47 -299.499
s77.333 -153.666 138 -201.999s134.667 -72.5 222 -72.5zM122.999 -94l956 1611h149l-956 -1611h-149z" />
    <glyph glyph-name="Ugrave" unicode="&#xd9;" horiz-adv-x="1522" 
d="M755 -21c-100 0 -189.331 19.668 -267.998 59.001s-140.667 95.5 -186 168.5s-68 160.5 -68 262.5v832l-163 28v127h523v-127l-163 -28v-832c0 -72.667 13.833 -133.667 41.5 -183s66.167 -86.5 115.5 -111.5s106.333 -37.5 171 -37.5
c65.333 0 123.166 12.333 173.499 37s89.666 61.667 117.999 111s42.5 110.666 42.5 183.999v832l-163 28v127h523v-127l-163 -28v-832c0 -105.333 -22.167 -194.5 -66.5 -267.5s-106.5 -128.333 -186.5 -166s-173.667 -56.5 -281 -56.5zM882.002 1582h-9h-138l-269 266l2 6
h230z" />
    <glyph glyph-name="Uacute" unicode="&#xda;" horiz-adv-x="1522" 
d="M755 -21c-100 0 -189.331 19.668 -267.998 59.001s-140.667 95.5 -186 168.5s-68 160.5 -68 262.5v832l-163 28v127h523v-127l-163 -28v-832c0 -72.667 13.833 -133.667 41.5 -183s66.167 -86.5 115.5 -111.5s106.333 -37.5 171 -37.5
c65.333 0 123.166 12.333 173.499 37s89.666 61.667 117.999 111s42.5 110.666 42.5 183.999v832l-163 28v127h523v-127l-163 -28v-832c0 -105.333 -22.167 -194.5 -66.5 -267.5s-106.5 -128.333 -186.5 -166s-173.667 -56.5 -281 -56.5zM640.002 1582l184 272h230l2 -6
l-269 -266h-138h-9z" />
    <glyph glyph-name="Ucircumflex" unicode="&#xdb;" horiz-adv-x="1522" 
d="M755 -21c-100 0 -189.331 19.668 -267.998 59.001s-140.667 95.5 -186 168.5s-68 160.5 -68 262.5v832l-163 28v127h523v-127l-163 -28v-832c0 -72.667 13.833 -133.667 41.5 -183s66.167 -86.5 115.5 -111.5s106.333 -37.5 171 -37.5
c65.333 0 123.166 12.333 173.499 37s89.666 61.667 117.999 111s42.5 110.666 42.5 183.999v832l-163 28v127h523v-127l-163 -28v-832c0 -105.333 -22.167 -194.5 -66.5 -267.5s-106.5 -128.333 -186.5 -166s-173.667 -56.5 -281 -56.5zM454.002 1591v26l246 237h119
l248 -238v-25h-161l-147 148l-145 -148h-160z" />
    <glyph glyph-name="Udieresis" unicode="&#xdc;" horiz-adv-x="1522" 
d="M755 -21c-100 0 -189.331 19.668 -267.998 59.001s-140.667 95.5 -186 168.5s-68 160.5 -68 262.5v832l-163 28v127h523v-127l-163 -28v-832c0 -72.667 13.833 -133.667 41.5 -183s66.167 -86.5 115.5 -111.5s106.333 -37.5 171 -37.5
c65.333 0 123.166 12.333 173.499 37s89.666 61.667 117.999 111s42.5 110.666 42.5 183.999v832l-163 28v127h523v-127l-163 -28v-832c0 -105.333 -22.167 -194.5 -66.5 -267.5s-106.5 -128.333 -186.5 -166s-173.667 -56.5 -281 -56.5zM869.002 1643v211h207v-211h-207z
M446.002 1643v211h207v-211h-207z" />
    <glyph glyph-name="Yacute" unicode="&#xdd;" horiz-adv-x="1461" 
d="M470 0v126l163 28v376l-448 780l-120 19v127h502v-127l-166 -19l309 -572l21 -39l1 2l20 37l324 572l-172 19v127h492v-127l-127 -19l-440 -765v-391l163 -28v-126h-522zM610 1582l184 272h230l2 -6l-269 -266h-138h-9z" />
    <glyph glyph-name="Thorn" unicode="&#xde;" horiz-adv-x="1277" 
d="M70 0v126l163 28v1147l-163 28v127h360h163v-127l-163 -28v-138h269c154 0 274.333 -39.333 361 -118s130 -181 130 -307c0 -126.667 -43.333 -229.167 -130 -307.5s-207 -117.5 -361 -117.5h-269v-159l163 -28v-126h-523zM430 467l269 0.000976562
c64.667 0 118.834 12 162.501 36s76.5 56.333 98.5 97s33 86 33 136c0 50.667 -11 96.667 -33 138s-54.833 74.166 -98.5 98.499s-97.834 36.5 -162.501 36.5h-269v-542z" />
    <glyph glyph-name="germandbls" unicode="&#xdf;" horiz-adv-x="1288" 
d="M830 -21c-37.333 0 -75.834 3.16699 -115.501 9.5s-75.834 14.833 -108.501 25.5s-57.334 22.667 -74.001 36l43 159c28 -18.667 64 -36 108 -52s86 -24 126 -24c72.667 0 125.834 15.667 159.501 47s50.5 73.333 50.5 126c0 36.667 -11.667 72.167 -35 106.5
s-52.166 68 -86.499 101l-103 100.5c-34.333 34 -63.166 69.167 -86.499 105.5s-35 75.166 -35 116.499c0 32.667 7 65.167 21 97.5s30.333 65.333 49 99s35 68.5 49 104.5s21 73.333 21 112c0 53.333 -16.333 96.333 -49 129s-74.667 49 -126 49
c-67.333 0 -121.5 -26.5 -162.5 -79.5s-61.5 -128.167 -61.5 -225.5v-1122h-359v126l163 28v968c0 96.667 17.5 179.167 52.5 247.5s83.333 120.666 145 156.999s132.834 54.5 213.501 54.5c72.667 0 136.667 -12.667 192 -38s98.666 -62.666 129.999 -111.999
s47 -110.333 47 -183c0 -52 -6.66699 -98.167 -20 -138.5s-28.5 -76.5 -45.5 -108.5l-45.5 -87.5c-13.333 -26.333 -20 -51.166 -20 -74.499c0 -26.667 11.667 -53.667 35 -81s52.5 -56.166 87.5 -86.499s69.833 -63.5 104.5 -99.5s63.667 -75.833 87 -119.5
s35 -92.5 35 -146.5c0 -70.667 -15.667 -130.334 -47 -179.001s-75.833 -85.5 -133.5 -110.5s-126.167 -37.5 -205.5 -37.5z" />
    <glyph glyph-name="agrave" unicode="&#xe0;" horiz-adv-x="1132" 
d="M424 -21c-112.667 0 -198.336 27.5029 -257.003 82.5029s-88 132.5 -88 232.5c0 68.667 18.833 128.5 56.5 179.5s92.167 90.667 163.5 119s156.666 42.5 255.999 42.5h193v106c0 65.333 -19.833 116 -59.5 152s-95.5 54 -167.5 54
c-45.333 0 -84.666 -5.5 -117.999 -16.5s-63.666 -26.167 -90.999 -45.5l-21 -151h-152v248c48.667 39.333 105.334 69.166 170.001 89.499s136.334 30.5 215.001 30.5c131.333 0 234.333 -31.333 309 -94s112 -152.334 112 -269.001v-521c0 -14 0.166992 -27.667 0.5 -41
s1.16602 -26.666 2.49902 -39.999l105 -11v-126h-283c-6 29.333 -10.667 55.666 -14 78.999s-5.66602 46.666 -6.99902 69.999c-38 -48.667 -85.5 -89.167 -142.5 -121.5s-117.833 -48.5 -182.5 -48.5zM452.998 144.003c65.333 0 125.001 15.666 179.001 46.999
s92.667 69 116 113v196h-200c-90.667 0 -158.667 -21.667 -204 -65s-68 -91.666 -68 -144.999c0 -47.333 14.667 -83.5 44 -108.5s73.666 -37.5 132.999 -37.5zM654.999 1288h-9h-138l-269 266l2 6h230z" />
    <glyph glyph-name="aacute" unicode="&#xe1;" horiz-adv-x="1132" 
d="M424 -21c-112.667 0 -198.336 27.5029 -257.003 82.5029s-88 132.5 -88 232.5c0 68.667 18.833 128.5 56.5 179.5s92.167 90.667 163.5 119s156.666 42.5 255.999 42.5h193v106c0 65.333 -19.833 116 -59.5 152s-95.5 54 -167.5 54
c-45.333 0 -84.666 -5.5 -117.999 -16.5s-63.666 -26.167 -90.999 -45.5l-21 -151h-152v248c48.667 39.333 105.334 69.166 170.001 89.499s136.334 30.5 215.001 30.5c131.333 0 234.333 -31.333 309 -94s112 -152.334 112 -269.001v-521c0 -14 0.166992 -27.667 0.5 -41
s1.16602 -26.666 2.49902 -39.999l105 -11v-126h-283c-6 29.333 -10.667 55.666 -14 78.999s-5.66602 46.666 -6.99902 69.999c-38 -48.667 -85.5 -89.167 -142.5 -121.5s-117.833 -48.5 -182.5 -48.5zM452.998 144.003c65.333 0 125.001 15.666 179.001 46.999
s92.667 69 116 113v196h-200c-90.667 0 -158.667 -21.667 -204 -65s-68 -91.666 -68 -144.999c0 -47.333 14.667 -83.5 44 -108.5s73.666 -37.5 132.999 -37.5zM412.999 1288l184 272h230l2 -6l-269 -266h-138h-9z" />
    <glyph glyph-name="acircumflex" unicode="&#xe2;" horiz-adv-x="1132" 
d="M424 -21c-112.667 0 -198.336 27.5029 -257.003 82.5029s-88 132.5 -88 232.5c0 68.667 18.833 128.5 56.5 179.5s92.167 90.667 163.5 119s156.666 42.5 255.999 42.5h193v106c0 65.333 -19.833 116 -59.5 152s-95.5 54 -167.5 54
c-45.333 0 -84.666 -5.5 -117.999 -16.5s-63.666 -26.167 -90.999 -45.5l-21 -151h-152v248c48.667 39.333 105.334 69.166 170.001 89.499s136.334 30.5 215.001 30.5c131.333 0 234.333 -31.333 309 -94s112 -152.334 112 -269.001v-521c0 -14 0.166992 -27.667 0.5 -41
s1.16602 -26.666 2.49902 -39.999l105 -11v-126h-283c-6 29.333 -10.667 55.666 -14 78.999s-5.66602 46.666 -6.99902 69.999c-38 -48.667 -85.5 -89.167 -142.5 -121.5s-117.833 -48.5 -182.5 -48.5zM452.998 144.003c65.333 0 125.001 15.666 179.001 46.999
s92.667 69 116 113v196h-200c-90.667 0 -158.667 -21.667 -204 -65s-68 -91.666 -68 -144.999c0 -47.333 14.667 -83.5 44 -108.5s73.666 -37.5 132.999 -37.5zM226.999 1297v26l246 237h119l248 -238v-25h-161l-147 148l-145 -148h-160z" />
    <glyph glyph-name="atilde" unicode="&#xe3;" horiz-adv-x="1132" 
d="M424 -21c-112.667 0 -198.336 27.5029 -257.003 82.5029s-88 132.5 -88 232.5c0 68.667 18.833 128.5 56.5 179.5s92.167 90.667 163.5 119s156.666 42.5 255.999 42.5h193v106c0 65.333 -19.833 116 -59.5 152s-95.5 54 -167.5 54
c-45.333 0 -84.666 -5.5 -117.999 -16.5s-63.666 -26.167 -90.999 -45.5l-21 -151h-152v248c48.667 39.333 105.334 69.166 170.001 89.499s136.334 30.5 215.001 30.5c131.333 0 234.333 -31.333 309 -94s112 -152.334 112 -269.001v-521c0 -14 0.166992 -27.667 0.5 -41
s1.16602 -26.666 2.49902 -39.999l105 -11v-126h-283c-6 29.333 -10.667 55.666 -14 78.999s-5.66602 46.666 -6.99902 69.999c-38 -48.667 -85.5 -89.167 -142.5 -121.5s-117.833 -48.5 -182.5 -48.5zM452.998 144.003c65.333 0 125.001 15.666 179.001 46.999
s92.667 69 116 113v196h-200c-90.667 0 -158.667 -21.667 -204 -65s-68 -91.666 -68 -144.999c0 -47.333 14.667 -83.5 44 -108.5s73.666 -37.5 132.999 -37.5zM293.999 1305l-106.999 22.001c0 42.667 9.33301 81.667 28 117s43.667 63.833 75 85.5s66.333 32.5 105 32.5
c30 0 62 -8.33301 96 -25l98.5 -50c31.667 -16.667 58.834 -25 81.501 -25c27.333 0 51 10.833 71 32.5s30 48.5 30 80.5l108 -28c0 -42.667 -9.33301 -81.334 -28 -116.001s-43.834 -62.167 -75.501 -82.5s-66.834 -30.5 -105.501 -30.5c-32.667 0 -66 8.16699 -100 24.5
s-66.167 32.833 -96.5 49.5s-56.833 25 -79.5 25c-28 0 -51.833 -10.833 -71.5 -32.5s-29.5 -48.167 -29.5 -79.5z" />
    <glyph glyph-name="adieresis" unicode="&#xe4;" horiz-adv-x="1132" 
d="M424 -21c-112.667 0 -198.336 27.5029 -257.003 82.5029s-88 132.5 -88 232.5c0 68.667 18.833 128.5 56.5 179.5s92.167 90.667 163.5 119s156.666 42.5 255.999 42.5h193v106c0 65.333 -19.833 116 -59.5 152s-95.5 54 -167.5 54
c-45.333 0 -84.666 -5.5 -117.999 -16.5s-63.666 -26.167 -90.999 -45.5l-21 -151h-152v248c48.667 39.333 105.334 69.166 170.001 89.499s136.334 30.5 215.001 30.5c131.333 0 234.333 -31.333 309 -94s112 -152.334 112 -269.001v-521c0 -14 0.166992 -27.667 0.5 -41
s1.16602 -26.666 2.49902 -39.999l105 -11v-126h-283c-6 29.333 -10.667 55.666 -14 78.999s-5.66602 46.666 -6.99902 69.999c-38 -48.667 -85.5 -89.167 -142.5 -121.5s-117.833 -48.5 -182.5 -48.5zM452.998 144.003c65.333 0 125.001 15.666 179.001 46.999
s92.667 69 116 113v196h-200c-90.667 0 -158.667 -21.667 -204 -65s-68 -91.666 -68 -144.999c0 -47.333 14.667 -83.5 44 -108.5s73.666 -37.5 132.999 -37.5zM641.999 1349v211h207v-211h-207zM218.999 1349v211h207v-211h-207z" />
    <glyph glyph-name="aring" unicode="&#xe5;" horiz-adv-x="1132" 
d="M424 -21c-112.667 0 -198.336 27.5029 -257.003 82.5029s-88 132.5 -88 232.5c0 68.667 18.833 128.5 56.5 179.5s92.167 90.667 163.5 119s156.666 42.5 255.999 42.5h193v106c0 65.333 -19.833 116 -59.5 152s-95.5 54 -167.5 54
c-45.333 0 -84.666 -5.5 -117.999 -16.5s-63.666 -26.167 -90.999 -45.5l-21 -151h-152v248c48.667 39.333 105.334 69.166 170.001 89.499s136.334 30.5 215.001 30.5c131.333 0 234.333 -31.333 309 -94s112 -152.334 112 -269.001v-521c0 -14 0.166992 -27.667 0.5 -41
s1.16602 -26.666 2.49902 -39.999l105 -11v-126h-283c-6 29.333 -10.667 55.666 -14 78.999s-5.66602 46.666 -6.99902 69.999c-38 -48.667 -85.5 -89.167 -142.5 -121.5s-117.833 -48.5 -182.5 -48.5zM452.998 144.003c65.333 0 125.001 15.666 179.001 46.999
s92.667 69 116 113v196h-200c-90.667 0 -158.667 -21.667 -204 -65s-68 -91.666 -68 -144.999c0 -47.333 14.667 -83.5 44 -108.5s73.666 -37.5 132.999 -37.5zM534.999 1225c-58 0 -107.167 18.001 -147.5 54.001s-60.5 82.667 -60.5 140c0 56 20.167 103 60.5 141
s89.5 57 147.5 57c56.667 0 105 -18.833 145 -56.5s60 -84.834 60 -141.501c0 -57.333 -20 -104 -60 -140s-88.333 -54 -145 -54zM534.999 1315c28 0 51.998 9.83301 71.998 29.5s30 44.5 30 74.5s-10 55.333 -30 76s-44 31 -72 31c-29.333 0 -54.166 -10.333 -74.499 -31
s-30.5 -46 -30.5 -76c0 -28.667 10.333 -53.167 31 -73.5s45.334 -30.5 74.001 -30.5z" />
    <glyph glyph-name="ae" unicode="&#xe6;" horiz-adv-x="1737" 
d="M435 -21c-116.667 0 -205.166 28.334 -265.499 85.001s-90.5 136 -90.5 238c0 68 19 127.333 57 178s92.5 90 163.5 118s156.5 42 256.5 42h193v101c0 65.333 -19.833 116 -59.5 152s-95.5 54 -167.5 54c-45.333 0 -84.666 -5.5 -117.999 -16.5
s-63.666 -26.167 -90.999 -45.5l-21 -151h-152v248c48.667 39.333 105.334 69.166 170.001 89.499s136.334 30.5 215.001 30.5c81.333 0 151.666 -13.833 210.999 -41.5s105.333 -68.834 138 -123.501c28.667 35.333 60.667 65.333 96 90s73.5 43.334 114.5 56.001
s83.833 19 128.5 19c95.333 0 176 -19.5 242 -58.5s116.333 -95 151 -168s52 -160.167 52 -261.5v-119h-710l-2 -5c0.666992 -106 27.167 -192 79.5 -258s130.166 -99 233.499 -99c69.333 0 126 9.16699 170 27.5s92 44.5 144 78.5l68 -138
c-36.667 -30 -86.334 -57.833 -149.001 -83.5s-140.334 -38.5 -233.001 -38.5c-180.667 0 -323.334 70.333 -428.001 211c-46.667 -69.333 -103.5 -121.833 -170.5 -157.5s-142.167 -53.5 -225.5 -53.5zM454.001 144.001c45.333 0 88.168 8.99902 128.501 26.999
s76 42 107 72s54.5 63 70.5 99c-4 32.667 -6.83301 60.667 -8.5 84s-2.5 49.333 -2.5 78v1h-200c-90.667 0 -158.834 -21.167 -204.501 -63.5s-68.5 -90.166 -68.5 -143.499c0 -43.333 14.667 -79.833 44 -109.5s74 -44.5 134 -44.5zM950.003 640h510.999v31
c0 81.333 -20 147.666 -60 198.999s-102.667 77 -188 77c-50.667 0 -95 -12.833 -133 -38.5s-68.167 -61.167 -90.5 -106.5s-36.166 -97.666 -41.499 -156.999z" />
    <glyph glyph-name="ccedilla" unicode="&#xe7;" horiz-adv-x="1067" 
d="M563 -21c-98 0 -183.337 22.834 -256.004 68.501s-129 109.167 -169 190.5s-60 175.333 -60 282v42c0 102.667 19.333 194.667 58 276s94.334 145.666 167.001 192.999s159.334 71 260.001 71c87.333 0 163.833 -14.333 229.5 -43s120.834 -68 165.501 -118l5 -260h-154
l-34 189c-22.667 23.333 -51 42 -85 56s-74 21 -120 21c-58.667 0 -110.167 -17.333 -154.5 -52s-78.833 -81 -103.5 -139s-37 -122.667 -37 -194v-42c0 -78.667 11.5 -147 34.5 -205s56 -102.833 99 -134.5s94.167 -47.5 153.5 -47.5c66.667 0 122 18.333 166 55
s71 87 81 151h177l2 -6c-3.33301 -62 -21.666 -120 -54.999 -174s-80.833 -97.5 -142.5 -130.5s-137.5 -49.5 -227.5 -49.5zM461.996 -434.999l-7 109.002c48 0 86.5 8 115.5 24s43.5 39.667 43.5 71s-12 53 -36 65s-65.333 20.333 -124 25l40 173h141l-20 -90
c44 -7.33301 80.333 -24.333 109 -51s43 -66.334 43 -119.001c0 -62.667 -26.333 -112.834 -79 -150.501s-128 -56.5 -226 -56.5z" />
    <glyph glyph-name="egrave" unicode="&#xe8;" horiz-adv-x="1059" 
d="M567 -21c-100 0 -186.997 22.834 -260.997 68.501s-131.167 109.167 -171.5 190.5s-60.5 175.333 -60.5 282v44c0 102.667 21.167 194.5 63.5 275.5s98.666 145 168.999 192s147.166 70.5 230.499 70.5c97.333 0 178.833 -20 244.5 -60s115.167 -96.167 148.5 -168.5
s50 -157.5 50 -255.5v-123h-702l-3 -5c1.33301 -69.333 13.5 -130.833 36.5 -184.5s56.167 -95.834 99.5 -126.501s95.333 -46 156 -46c66.667 0 125.167 9.5 175.5 28.5s93.833 45.167 130.5 78.5l77 -128c-38.667 -37.333 -89.834 -68.833 -153.501 -94.5
s-140.167 -38.5 -229.5 -38.5zM284.003 649.001h498.998v26c0 52 -9.16699 98.5 -27.5 139.5s-45.666 73.333 -81.999 97s-81.833 35.5 -136.5 35.5c-44 0 -84 -12.833 -120 -38.5s-65.667 -60.5 -89 -104.5s-38.666 -94 -45.999 -150zM657.001 1288h-9h-138l-269 266l2 6
h230z" />
    <glyph glyph-name="eacute" unicode="&#xe9;" horiz-adv-x="1059" 
d="M567 -21c-100 0 -186.997 22.834 -260.997 68.501s-131.167 109.167 -171.5 190.5s-60.5 175.333 -60.5 282v44c0 102.667 21.167 194.5 63.5 275.5s98.666 145 168.999 192s147.166 70.5 230.499 70.5c97.333 0 178.833 -20 244.5 -60s115.167 -96.167 148.5 -168.5
s50 -157.5 50 -255.5v-123h-702l-3 -5c1.33301 -69.333 13.5 -130.833 36.5 -184.5s56.167 -95.834 99.5 -126.501s95.333 -46 156 -46c66.667 0 125.167 9.5 175.5 28.5s93.833 45.167 130.5 78.5l77 -128c-38.667 -37.333 -89.834 -68.833 -153.501 -94.5
s-140.167 -38.5 -229.5 -38.5zM284.003 649.001h498.998v26c0 52 -9.16699 98.5 -27.5 139.5s-45.666 73.333 -81.999 97s-81.833 35.5 -136.5 35.5c-44 0 -84 -12.833 -120 -38.5s-65.667 -60.5 -89 -104.5s-38.666 -94 -45.999 -150zM415.001 1288l184 272h230l2 -6
l-269 -266h-138h-9z" />
    <glyph glyph-name="ecircumflex" unicode="&#xea;" horiz-adv-x="1059" 
d="M567 -21c-100 0 -186.997 22.834 -260.997 68.501s-131.167 109.167 -171.5 190.5s-60.5 175.333 -60.5 282v44c0 102.667 21.167 194.5 63.5 275.5s98.666 145 168.999 192s147.166 70.5 230.499 70.5c97.333 0 178.833 -20 244.5 -60s115.167 -96.167 148.5 -168.5
s50 -157.5 50 -255.5v-123h-702l-3 -5c1.33301 -69.333 13.5 -130.833 36.5 -184.5s56.167 -95.834 99.5 -126.501s95.333 -46 156 -46c66.667 0 125.167 9.5 175.5 28.5s93.833 45.167 130.5 78.5l77 -128c-38.667 -37.333 -89.834 -68.833 -153.501 -94.5
s-140.167 -38.5 -229.5 -38.5zM284.003 649.001h498.998v26c0 52 -9.16699 98.5 -27.5 139.5s-45.666 73.333 -81.999 97s-81.833 35.5 -136.5 35.5c-44 0 -84 -12.833 -120 -38.5s-65.667 -60.5 -89 -104.5s-38.666 -94 -45.999 -150zM229.001 1297v26l246 237h119
l248 -238v-25h-161l-147 148l-145 -148h-160z" />
    <glyph glyph-name="edieresis" unicode="&#xeb;" horiz-adv-x="1059" 
d="M567 -21c-100 0 -186.997 22.834 -260.997 68.501s-131.167 109.167 -171.5 190.5s-60.5 175.333 -60.5 282v44c0 102.667 21.167 194.5 63.5 275.5s98.666 145 168.999 192s147.166 70.5 230.499 70.5c97.333 0 178.833 -20 244.5 -60s115.167 -96.167 148.5 -168.5
s50 -157.5 50 -255.5v-123h-702l-3 -5c1.33301 -69.333 13.5 -130.833 36.5 -184.5s56.167 -95.834 99.5 -126.501s95.333 -46 156 -46c66.667 0 125.167 9.5 175.5 28.5s93.833 45.167 130.5 78.5l77 -128c-38.667 -37.333 -89.834 -68.833 -153.501 -94.5
s-140.167 -38.5 -229.5 -38.5zM284.003 649.001h498.998v26c0 52 -9.16699 98.5 -27.5 139.5s-45.666 73.333 -81.999 97s-81.833 35.5 -136.5 35.5c-44 0 -84 -12.833 -120 -38.5s-65.667 -60.5 -89 -104.5s-38.666 -94 -45.999 -150zM644.001 1349v211h207v-211h-207z
M221.001 1349v211h207v-211h-207z" />
    <glyph glyph-name="igrave" unicode="&#xec;" horiz-adv-x="652" 
d="M67 0v126l163 28v773l-163 28v127h360v-928l163 -28v-126h-523zM445 1288h-9h-138l-269 266l2 6h230z" />
    <glyph glyph-name="iacute" unicode="&#xed;" horiz-adv-x="652" 
d="M67 0v126l163 28v773l-163 28v127h360v-928l163 -28v-126h-523zM203 1288l184 272h230l2 -6l-269 -266h-138h-9z" />
    <glyph glyph-name="icircumflex" unicode="&#xee;" horiz-adv-x="652" 
d="M67 0v126l163 28v773l-163 28v127h360v-928l163 -28v-126h-523zM17 1297v26l246 237h119l248 -238v-25h-161l-147 148l-145 -148h-160z" />
    <glyph glyph-name="idieresis" unicode="&#xef;" horiz-adv-x="652" 
d="M67 0v126l163 28v773l-163 28v127h360v-928l163 -28v-126h-523zM432 1349v211h207v-211h-207zM9 1349v211h207v-211h-207z" />
    <glyph glyph-name="eth" unicode="&#xf0;" horiz-adv-x="1191" 
d="M575 -21c-96.667 0 -182.501 21.5039 -257.501 64.5039s-133.667 101.167 -176 174.5s-63.5 156 -63.5 248c0 101.333 21 190.5 63 267.5s99.833 137 173.5 180s157.834 64.5 252.501 64.5c55.333 0 107.833 -10.667 157.5 -32s91.834 -49.333 126.501 -84l4 5
c-13.333 65.333 -34 125.166 -62 179.499s-61.667 102.166 -101 143.499l-272 -155l-77 102l245 140c-24 15.333 -48.833 29.166 -74.5 41.499s-52.5 23.833 -80.5 34.5l60 164c50 -14.667 97.667 -33.667 143 -57s88 -50.666 128 -81.999l233 133l77 -102l-215 -123
c69.333 -80.667 123.166 -176.334 161.499 -287.001s57.5 -232.667 57.5 -366v-98c0 -108.667 -22 -204.834 -66 -288.501s-104 -149.167 -180 -196.5s-161.667 -71 -257 -71zM578.999 133.004c59.333 0 111.666 17.332 156.999 51.999s80.833 82.334 106.5 143.001
s38.5 129.667 38.5 207v100v50c-24 38.667 -62.833 71.334 -116.5 98.001s-119.5 40 -197.5 40c-58 0 -109 -16 -153 -48s-78.167 -75 -102.5 -129s-36.5 -114 -36.5 -180c0 -58.667 12.333 -113.334 37 -164.001s59.834 -91.5 105.501 -122.5s99.5 -46.5 161.5 -46.5z" />
    <glyph glyph-name="ntilde" unicode="&#xf1;" horiz-adv-x="1343" 
d="M74 0l0.00195312 125.999l163 28v773l-163 28v127h339l14 -161c36 57.333 81.167 101.833 135.5 133.5s116.166 47.5 185.499 47.5c116.667 0 207 -34.167 271 -102.5s96 -173.833 96 -316.5v-529l163 -28v-126h-523v126l163 28v525c0 95.333 -18.833 163 -56.5 203
s-95.167 60 -172.5 60c-56.667 0 -106.834 -13.667 -150.501 -41s-78.5 -64.666 -104.5 -111.999v-635l163 -28v-126h-523zM435.002 1305l-106.999 22.001c0 42.667 9.33301 81.667 28 117s43.667 63.833 75 85.5s66.333 32.5 105 32.5c30 0 62 -8.33301 96 -25l98.5 -50
c31.667 -16.667 58.834 -25 81.501 -25c27.333 0 51 10.833 71 32.5s30 48.5 30 80.5l108 -28c0 -42.667 -9.33301 -81.334 -28 -116.001s-43.834 -62.167 -75.501 -82.5s-66.834 -30.5 -105.501 -30.5c-32.667 0 -66 8.16699 -100 24.5s-66.167 32.833 -96.5 49.5
s-56.833 25 -79.5 25c-28 0 -51.833 -10.833 -71.5 -32.5s-29.5 -48.167 -29.5 -79.5z" />
    <glyph glyph-name="ograve" unicode="&#xf2;" horiz-adv-x="1124" 
d="M563 -21c-100 0 -186.166 23.5 -258.499 70.5s-128.166 112 -167.499 195s-59 177.833 -59 284.5v22c0 106.667 19.667 201.5 59 284.5s95.166 148.167 167.499 195.5s157.833 71 256.5 71c100 0 186.167 -23.667 258.5 -71s128.166 -112.333 167.499 -195
s59 -177.667 59 -285v-22c0 -107.333 -19.667 -202.5 -59 -285.5s-95 -147.833 -167 -194.5s-157.667 -70 -257 -70zM563.001 133c62.667 0 115.169 17.167 157.502 51.5s74.333 81.333 96 141s32.5 127.5 32.5 203.5v22c0 76 -10.833 143.833 -32.5 203.5
s-53.834 106.667 -96.501 141s-95.667 51.5 -159 51.5c-62.667 0 -115.334 -17.167 -158.001 -51.5s-74.667 -81.333 -96 -141s-32 -127.5 -32 -203.5v-22c0 -76 10.667 -143.833 32 -203.5s53.5 -106.667 96.5 -141s96.167 -51.5 159.5 -51.5zM683.003 1288h-9h-138
l-269 266l2 6h230z" />
    <glyph glyph-name="oacute" unicode="&#xf3;" horiz-adv-x="1124" 
d="M563 -21c-100 0 -186.166 23.5 -258.499 70.5s-128.166 112 -167.499 195s-59 177.833 -59 284.5v22c0 106.667 19.667 201.5 59 284.5s95.166 148.167 167.499 195.5s157.833 71 256.5 71c100 0 186.167 -23.667 258.5 -71s128.166 -112.333 167.499 -195
s59 -177.667 59 -285v-22c0 -107.333 -19.667 -202.5 -59 -285.5s-95 -147.833 -167 -194.5s-157.667 -70 -257 -70zM563.001 133c62.667 0 115.169 17.167 157.502 51.5s74.333 81.333 96 141s32.5 127.5 32.5 203.5v22c0 76 -10.833 143.833 -32.5 203.5
s-53.834 106.667 -96.501 141s-95.667 51.5 -159 51.5c-62.667 0 -115.334 -17.167 -158.001 -51.5s-74.667 -81.333 -96 -141s-32 -127.5 -32 -203.5v-22c0 -76 10.667 -143.833 32 -203.5s53.5 -106.667 96.5 -141s96.167 -51.5 159.5 -51.5zM441.003 1288l184 272h230
l2 -6l-269 -266h-138h-9z" />
    <glyph glyph-name="ocircumflex" unicode="&#xf4;" horiz-adv-x="1124" 
d="M563 -21c-100 0 -186.166 23.5 -258.499 70.5s-128.166 112 -167.499 195s-59 177.833 -59 284.5v22c0 106.667 19.667 201.5 59 284.5s95.166 148.167 167.499 195.5s157.833 71 256.5 71c100 0 186.167 -23.667 258.5 -71s128.166 -112.333 167.499 -195
s59 -177.667 59 -285v-22c0 -107.333 -19.667 -202.5 -59 -285.5s-95 -147.833 -167 -194.5s-157.667 -70 -257 -70zM563.001 133c62.667 0 115.169 17.167 157.502 51.5s74.333 81.333 96 141s32.5 127.5 32.5 203.5v22c0 76 -10.833 143.833 -32.5 203.5
s-53.834 106.667 -96.501 141s-95.667 51.5 -159 51.5c-62.667 0 -115.334 -17.167 -158.001 -51.5s-74.667 -81.333 -96 -141s-32 -127.5 -32 -203.5v-22c0 -76 10.667 -143.833 32 -203.5s53.5 -106.667 96.5 -141s96.167 -51.5 159.5 -51.5zM255.003 1297v26l246 237h119
l248 -238v-25h-161l-147 148l-145 -148h-160z" />
    <glyph glyph-name="otilde" unicode="&#xf5;" horiz-adv-x="1124" 
d="M563 -21c-100 0 -186.166 23.5 -258.499 70.5s-128.166 112 -167.499 195s-59 177.833 -59 284.5v22c0 106.667 19.667 201.5 59 284.5s95.166 148.167 167.499 195.5s157.833 71 256.5 71c100 0 186.167 -23.667 258.5 -71s128.166 -112.333 167.499 -195
s59 -177.667 59 -285v-22c0 -107.333 -19.667 -202.5 -59 -285.5s-95 -147.833 -167 -194.5s-157.667 -70 -257 -70zM563.001 133c62.667 0 115.169 17.167 157.502 51.5s74.333 81.333 96 141s32.5 127.5 32.5 203.5v22c0 76 -10.833 143.833 -32.5 203.5
s-53.834 106.667 -96.501 141s-95.667 51.5 -159 51.5c-62.667 0 -115.334 -17.167 -158.001 -51.5s-74.667 -81.333 -96 -141s-32 -127.5 -32 -203.5v-22c0 -76 10.667 -143.833 32 -203.5s53.5 -106.667 96.5 -141s96.167 -51.5 159.5 -51.5zM322.003 1305
l-106.999 22.001c0 42.667 9.33301 81.667 28 117s43.667 63.833 75 85.5s66.333 32.5 105 32.5c30 0 62 -8.33301 96 -25l98.5 -50c31.667 -16.667 58.834 -25 81.501 -25c27.333 0 51 10.833 71 32.5s30 48.5 30 80.5l108 -28c0 -42.667 -9.33301 -81.334 -28 -116.001
s-43.834 -62.167 -75.501 -82.5s-66.834 -30.5 -105.501 -30.5c-32.667 0 -66 8.16699 -100 24.5s-66.167 32.833 -96.5 49.5s-56.833 25 -79.5 25c-28 0 -51.833 -10.833 -71.5 -32.5s-29.5 -48.167 -29.5 -79.5z" />
    <glyph glyph-name="odieresis" unicode="&#xf6;" horiz-adv-x="1124" 
d="M563 -21c-100 0 -186.166 23.5 -258.499 70.5s-128.166 112 -167.499 195s-59 177.833 -59 284.5v22c0 106.667 19.667 201.5 59 284.5s95.166 148.167 167.499 195.5s157.833 71 256.5 71c100 0 186.167 -23.667 258.5 -71s128.166 -112.333 167.499 -195
s59 -177.667 59 -285v-22c0 -107.333 -19.667 -202.5 -59 -285.5s-95 -147.833 -167 -194.5s-157.667 -70 -257 -70zM563.001 133c62.667 0 115.169 17.167 157.502 51.5s74.333 81.333 96 141s32.5 127.5 32.5 203.5v22c0 76 -10.833 143.833 -32.5 203.5
s-53.834 106.667 -96.501 141s-95.667 51.5 -159 51.5c-62.667 0 -115.334 -17.167 -158.001 -51.5s-74.667 -81.333 -96 -141s-32 -127.5 -32 -203.5v-22c0 -76 10.667 -143.833 32 -203.5s53.5 -106.667 96.5 -141s96.167 -51.5 159.5 -51.5zM670.003 1349v211h207v-211
h-207zM247.003 1349v211h207v-211h-207z" />
    <glyph glyph-name="divide" unicode="&#xf7;" horiz-adv-x="1148" 
d="M74 597v188h998v-188h-998zM475 180v203h198v-203h-198zM475 999v203h198v-203h-198z" />
    <glyph glyph-name="oslash" unicode="&#xf8;" horiz-adv-x="1124" 
d="M563 -21c-100 0 -186.166 23.5 -258.499 70.5s-128.166 112 -167.499 195s-59 177.833 -59 284.5v22c0 106.667 19.667 201.5 59 284.5s95.166 148.167 167.499 195.5s157.833 71 256.5 71c100 0 186.167 -23.667 258.5 -71s128.166 -112.333 167.499 -195
s59 -177.667 59 -285v-22c0 -107.333 -19.667 -202.5 -59 -285.5s-95 -147.833 -167 -194.5s-157.667 -70 -257 -70zM563.001 133c62.667 0 115.169 17.167 157.502 51.5s74.333 81.333 96 141s32.5 127.5 32.5 203.5v22c0 76 -10.833 143.833 -32.5 203.5
s-53.834 106.667 -96.501 141s-95.667 51.5 -159 51.5c-62.667 0 -115.334 -17.167 -158.001 -51.5s-74.667 -81.333 -96 -141s-32 -127.5 -32 -203.5v-22c0 -76 10.667 -143.833 32 -203.5s53.5 -106.667 96.5 -141s96.167 -51.5 159.5 -51.5zM165.003 -131l664 1344h129
l-664 -1344h-129z" />
    <glyph glyph-name="ugrave" unicode="&#xf9;" horiz-adv-x="1245" 
d="M550 -21c-117.333 0 -209 37.667 -275 113s-99 192.666 -99 351.999v483l-124 28v127h124h197v-640c0 -115.333 17 -194.666 51 -237.999s87 -65 159 -65c70 0 127.833 14.167 173.5 42.5s80.167 68.5 103.5 120.5v625l-145 28v127h145h197v-928l124 -28v-126h-301
l-13 160c-34 -58 -77.833 -102.667 -131.5 -134s-115.5 -47 -185.5 -47zM727 1288h-9h-138l-269 266l2 6h230z" />
    <glyph glyph-name="uacute" unicode="&#xfa;" horiz-adv-x="1245" 
d="M550 -21c-117.333 0 -209 37.667 -275 113s-99 192.666 -99 351.999v483l-124 28v127h124h197v-640c0 -115.333 17 -194.666 51 -237.999s87 -65 159 -65c70 0 127.833 14.167 173.5 42.5s80.167 68.5 103.5 120.5v625l-145 28v127h145h197v-928l124 -28v-126h-301
l-13 160c-34 -58 -77.833 -102.667 -131.5 -134s-115.5 -47 -185.5 -47zM485 1288l184 272h230l2 -6l-269 -266h-138h-9z" />
    <glyph glyph-name="ucircumflex" unicode="&#xfb;" horiz-adv-x="1245" 
d="M550 -21c-117.333 0 -209 37.667 -275 113s-99 192.666 -99 351.999v483l-124 28v127h124h197v-640c0 -115.333 17 -194.666 51 -237.999s87 -65 159 -65c70 0 127.833 14.167 173.5 42.5s80.167 68.5 103.5 120.5v625l-145 28v127h145h197v-928l124 -28v-126h-301
l-13 160c-34 -58 -77.833 -102.667 -131.5 -134s-115.5 -47 -185.5 -47zM299 1297v26l246 237h119l248 -238v-25h-161l-147 148l-145 -148h-160z" />
    <glyph glyph-name="udieresis" unicode="&#xfc;" horiz-adv-x="1245" 
d="M550 -21c-117.333 0 -209 37.667 -275 113s-99 192.666 -99 351.999v483l-124 28v127h124h197v-640c0 -115.333 17 -194.666 51 -237.999s87 -65 159 -65c70 0 127.833 14.167 173.5 42.5s80.167 68.5 103.5 120.5v625l-145 28v127h145h197v-928l124 -28v-126h-301
l-13 160c-34 -58 -77.833 -102.667 -131.5 -134s-115.5 -47 -185.5 -47zM714 1349v211h207v-211h-207zM291 1349v211h207v-211h-207z" />
    <glyph glyph-name="yacute" unicode="&#xfd;" horiz-adv-x="1192" 
d="M309 -437c-15.333 0 -35.333 1.83301 -60 5.5s-43.667 7.16699 -57 10.5l20 155c11.333 -1.33301 27 -2.5 47 -3.5s33.667 -1.5 41 -1.5c42 0 76.167 16 102.5 48s50.833 75.667 73.5 131l47 114l-383 917l-116 16v127h454v-127l-131 -20l211 -541l51 -141h6l250 682
l-138 20v127h445v-127l-112 -16l-426 -1105c-20 -52 -44.167 -98.5 -72.5 -139.5s-63 -73.167 -104 -96.5s-90.5 -35 -148.5 -35zM475 1288l184 272h230l2 -6l-269 -266h-138h-9z" />
    <glyph glyph-name="thorn" unicode="&#xfe;" horiz-adv-x="1188" 
d="M25 -416l0.00488281 127l163 28v1666l-163 28v127h360v-598c35.333 45.333 78.166 80 128.499 104s108.166 36 173.499 36c88.667 0 164.667 -24.167 228 -72.5s111.666 -116 144.999 -203s50 -188.833 50 -305.5v-21c0 -104 -16.833 -195 -50.5 -273
s-81.834 -138.833 -144.501 -182.5s-137.667 -65.5 -225 -65.5c-66.667 0 -125.334 11.167 -176.001 33.5s-93.667 55.833 -129 100.5v-374l163 -28v-127h-523zM629.005 133c93.333 0 163.998 34.001 211.998 102.001s72 156.333 72 265v21c0 82 -10.667 154.667 -32 218
s-53.166 113 -95.499 149s-95.166 54 -158.499 54c-56.667 0 -105 -12.833 -145 -38.5s-72.333 -60.834 -97 -105.501v-523c24.667 -44.667 57 -79.5 97 -104.5s89 -37.5 147 -37.5z" />
    <glyph glyph-name="ydieresis" unicode="&#xff;" horiz-adv-x="1192" 
d="M309 -437c-15.333 0 -35.333 1.83301 -60 5.5s-43.667 7.16699 -57 10.5l20 155c11.333 -1.33301 27 -2.5 47 -3.5s33.667 -1.5 41 -1.5c42 0 76.167 16 102.5 48s50.833 75.667 73.5 131l47 114l-383 917l-116 16v127h454v-127l-131 -20l211 -541l51 -141h6l250 682
l-138 20v127h445v-127l-112 -16l-426 -1105c-20 -52 -44.167 -98.5 -72.5 -139.5s-63 -73.167 -104 -96.5s-90.5 -35 -148.5 -35zM704 1349v211h207v-211h-207zM281 1349v211h207v-211h-207z" />
    <glyph glyph-name="Amacron" unicode="&#x100;" horiz-adv-x="1533" 
d="M70 0v126l108 15l509 1315h169l500 -1315l107 -15v-126h-418v126l110 19l-96 268h-583l-99 -268l110 -19v-126h-417zM537 578h462l-214 592l-12 33h-6l-12 -33zM409 1644v146h721v-146h-721z" />
    <glyph glyph-name="amacron" unicode="&#x101;" horiz-adv-x="1132" 
d="M424 -21c-112.667 0 -198.336 27.5029 -257.003 82.5029s-88 132.5 -88 232.5c0 68.667 18.833 128.5 56.5 179.5s92.167 90.667 163.5 119s156.666 42.5 255.999 42.5h193v106c0 65.333 -19.833 116 -59.5 152s-95.5 54 -167.5 54
c-45.333 0 -84.666 -5.5 -117.999 -16.5s-63.666 -26.167 -90.999 -45.5l-21 -151h-152v248c48.667 39.333 105.334 69.166 170.001 89.499s136.334 30.5 215.001 30.5c131.333 0 234.333 -31.333 309 -94s112 -152.334 112 -269.001v-521c0 -14 0.166992 -27.667 0.5 -41
s1.16602 -26.666 2.49902 -39.999l105 -11v-126h-283c-6 29.333 -10.667 55.666 -14 78.999s-5.66602 46.666 -6.99902 69.999c-38 -48.667 -85.5 -89.167 -142.5 -121.5s-117.833 -48.5 -182.5 -48.5zM452.998 144.003c65.333 0 125.001 15.666 179.001 46.999
s92.667 69 116 113v196h-200c-90.667 0 -158.667 -21.667 -204 -65s-68 -91.666 -68 -144.999c0 -47.333 14.667 -83.5 44 -108.5s73.666 -37.5 132.999 -37.5zM172.999 1350v146h721v-146h-721z" />
    <glyph glyph-name="Abreve" unicode="&#x102;" horiz-adv-x="1533" 
d="M70 0v126l108 15l509 1315h169l500 -1315l107 -15v-126h-418v126l110 19l-96 268h-583l-99 -268l110 -19v-126h-417zM537 578h462l-214 592l-12 33h-6l-12 -33zM770 1566c-96.667 0 -172.668 26.167 -228.001 78.5s-83 120.166 -83 203.499l2 6h150
c0 -48 12.833 -87 38.5 -117s65.834 -45 120.501 -45c53.333 0 93 15 119 45s39 69 39 117h151l2 -6c-0.666992 -83.333 -28.5 -151.166 -83.5 -203.499s-130.833 -78.5 -227.5 -78.5z" />
    <glyph glyph-name="abreve" unicode="&#x103;" horiz-adv-x="1132" 
d="M424 -21c-112.667 0 -198.336 27.5029 -257.003 82.5029s-88 132.5 -88 232.5c0 68.667 18.833 128.5 56.5 179.5s92.167 90.667 163.5 119s156.666 42.5 255.999 42.5h193v106c0 65.333 -19.833 116 -59.5 152s-95.5 54 -167.5 54
c-45.333 0 -84.666 -5.5 -117.999 -16.5s-63.666 -26.167 -90.999 -45.5l-21 -151h-152v248c48.667 39.333 105.334 69.166 170.001 89.499s136.334 30.5 215.001 30.5c131.333 0 234.333 -31.333 309 -94s112 -152.334 112 -269.001v-521c0 -14 0.166992 -27.667 0.5 -41
s1.16602 -26.666 2.49902 -39.999l105 -11v-126h-283c-6 29.333 -10.667 55.666 -14 78.999s-5.66602 46.666 -6.99902 69.999c-38 -48.667 -85.5 -89.167 -142.5 -121.5s-117.833 -48.5 -182.5 -48.5zM452.998 144.003c65.333 0 125.001 15.666 179.001 46.999
s92.667 69 116 113v196h-200c-90.667 0 -158.667 -21.667 -204 -65s-68 -91.666 -68 -144.999c0 -47.333 14.667 -83.5 44 -108.5s73.666 -37.5 132.999 -37.5zM533.999 1272c-96.667 0 -172.668 26.167 -228.001 78.5s-83 120.166 -83 203.499l2 6h150
c0 -48 12.833 -87 38.5 -117s65.834 -45 120.501 -45c53.333 0 93 15 119 45s39 69 39 117h151l2 -6c-0.666992 -83.333 -28.5 -151.166 -83.5 -203.499s-130.833 -78.5 -227.5 -78.5z" />
    <glyph glyph-name="Aogonek" unicode="&#x104;" horiz-adv-x="1533" 
d="M70 0v126l108 15l509 1315h169l500 -1315l107 -15v-126h-418v126l110 19l-96 268h-583l-99 -268l110 -19v-126h-417zM537 578h462l-214 592l-12 33h-6l-12 -33zM1374 -432c-70 0 -125.831 18.334 -167.498 55.001s-62.5 88 -62.5 154c0 53.333 19.833 103.833 59.5 151.5
s102.5 90.5 188.5 128.5l71 -57c-46.667 -34.667 -83.167 -67.834 -109.5 -99.501s-39.5 -65.5 -39.5 -101.5c0 -28 7.5 -50 22.5 -66s39.5 -24 73.5 -24c18 0 34.667 2.5 50 7.5s31.666 11.167 48.999 18.5l33 -123c-24 -12.667 -49.833 -23.167 -77.5 -31.5
s-57.834 -12.5 -90.501 -12.5z" />
    <glyph glyph-name="aogonek" unicode="&#x105;" horiz-adv-x="1132" 
d="M424 -21c-112.667 0 -198.336 27.5029 -257.003 82.5029s-88 132.5 -88 232.5c0 68.667 18.833 128.5 56.5 179.5s92.167 90.667 163.5 119s156.666 42.5 255.999 42.5h193v106c0 65.333 -19.833 116 -59.5 152s-95.5 54 -167.5 54
c-45.333 0 -84.666 -5.5 -117.999 -16.5s-63.666 -26.167 -90.999 -45.5l-21 -151h-152v248c48.667 39.333 105.334 69.166 170.001 89.499s136.334 30.5 215.001 30.5c131.333 0 234.333 -31.333 309 -94s112 -152.334 112 -269.001v-521c0 -14 0.166992 -27.667 0.5 -41
s1.16602 -26.666 2.49902 -39.999l105 -11v-126h-283c-6 29.333 -10.667 55.666 -14 78.999s-5.66602 46.666 -6.99902 69.999c-38 -48.667 -85.5 -89.167 -142.5 -121.5s-117.833 -48.5 -182.5 -48.5zM452.998 144.003c65.333 0 125.001 15.666 179.001 46.999
s92.667 69 116 113v196h-200c-90.667 0 -158.667 -21.667 -204 -65s-68 -91.666 -68 -144.999c0 -47.333 14.667 -83.5 44 -108.5s73.666 -37.5 132.999 -37.5zM963.999 -431.998c-70 0 -125.831 18.334 -167.498 55.001s-62.5 88 -62.5 154
c0 53.333 19.833 103.833 59.5 151.5s102.5 90.5 188.5 128.5l71 -57c-46.667 -34.667 -83.167 -67.834 -109.5 -99.501s-39.5 -65.5 -39.5 -101.5c0 -28 7.5 -50 22.5 -66s39.5 -24 73.5 -24c18 0 34.667 2.5 50 7.5s31.666 11.167 48.999 18.5l33 -123
c-24 -12.667 -49.833 -23.167 -77.5 -31.5s-57.834 -12.5 -90.501 -12.5z" />
    <glyph glyph-name="Cacute" unicode="&#x106;" horiz-adv-x="1290" 
d="M739 -21c-146 0 -267.833 31.999 -365.5 95.999s-171 151.667 -220 263s-73.5 237.666 -73.5 378.999v21c0 142.667 25.667 269.5 77 380.5s125 198.5 221 262.5s210.667 96 344 96c94 0 180 -14.667 258 -44s142.667 -66.666 194 -111.999v-314h-157l-21 230
c-21.333 16.667 -45.833 30.667 -73.5 42s-58.334 20 -92.001 26s-70.167 9 -109.5 9c-95.333 0 -176 -24.5 -242 -73.5s-116 -116.5 -150 -202.5s-51 -185.333 -51 -298v-23c0 -122 18.167 -226.167 54.5 -312.5s89.333 -152.166 159 -197.499s154.5 -68 254.5 -68
c46.667 0 92.334 5.66699 137.001 17s81.667 26 111 44l22 203h154v-316c-54.667 -34 -120 -60.5 -196 -79.5s-154.333 -28.5 -235 -28.5zM589 1582l184 272h230l2 -6l-269 -266h-138h-9z" />
    <glyph glyph-name="cacute" unicode="&#x107;" horiz-adv-x="1067" 
d="M563 -21c-98 0 -183.337 22.834 -256.004 68.501s-129 109.167 -169 190.5s-60 175.333 -60 282v42c0 102.667 19.333 194.667 58 276s94.334 145.666 167.001 192.999s159.334 71 260.001 71c87.333 0 163.833 -14.333 229.5 -43s120.834 -68 165.501 -118l5 -260h-154
l-34 189c-22.667 23.333 -51 42 -85 56s-74 21 -120 21c-58.667 0 -110.167 -17.333 -154.5 -52s-78.833 -81 -103.5 -139s-37 -122.667 -37 -194v-42c0 -78.667 11.5 -147 34.5 -205s56 -102.833 99 -134.5s94.167 -47.5 153.5 -47.5c66.667 0 122 18.333 166 55
s71 87 81 151h177l2 -6c-3.33301 -62 -21.666 -120 -54.999 -174s-80.833 -97.5 -142.5 -130.5s-137.5 -49.5 -227.5 -49.5zM435.996 1288l184 272h230l2 -6l-269 -266h-138h-9z" />
    <glyph glyph-name="Ccircumflex" unicode="&#x108;" horiz-adv-x="1290" 
d="M739 -21c-146 0 -267.833 31.999 -365.5 95.999s-171 151.667 -220 263s-73.5 237.666 -73.5 378.999v21c0 142.667 25.667 269.5 77 380.5s125 198.5 221 262.5s210.667 96 344 96c94 0 180 -14.667 258 -44s142.667 -66.666 194 -111.999v-314h-157l-21 230
c-21.333 16.667 -45.833 30.667 -73.5 42s-58.334 20 -92.001 26s-70.167 9 -109.5 9c-95.333 0 -176 -24.5 -242 -73.5s-116 -116.5 -150 -202.5s-51 -185.333 -51 -298v-23c0 -122 18.167 -226.167 54.5 -312.5s89.333 -152.166 159 -197.499s154.5 -68 254.5 -68
c46.667 0 92.334 5.66699 137.001 17s81.667 26 111 44l22 203h154v-316c-54.667 -34 -120 -60.5 -196 -79.5s-154.333 -28.5 -235 -28.5zM403 1591v26l246 237h119l248 -238v-25h-161l-147 148l-145 -148h-160z" />
    <glyph glyph-name="ccircumflex" unicode="&#x109;" horiz-adv-x="1067" 
d="M563 -21c-98 0 -183.337 22.834 -256.004 68.501s-129 109.167 -169 190.5s-60 175.333 -60 282v42c0 102.667 19.333 194.667 58 276s94.334 145.666 167.001 192.999s159.334 71 260.001 71c87.333 0 163.833 -14.333 229.5 -43s120.834 -68 165.501 -118l5 -260h-154
l-34 189c-22.667 23.333 -51 42 -85 56s-74 21 -120 21c-58.667 0 -110.167 -17.333 -154.5 -52s-78.833 -81 -103.5 -139s-37 -122.667 -37 -194v-42c0 -78.667 11.5 -147 34.5 -205s56 -102.833 99 -134.5s94.167 -47.5 153.5 -47.5c66.667 0 122 18.333 166 55
s71 87 81 151h177l2 -6c-3.33301 -62 -21.666 -120 -54.999 -174s-80.833 -97.5 -142.5 -130.5s-137.5 -49.5 -227.5 -49.5zM249.996 1297v26l246 237h119l248 -238v-25h-161l-147 148l-145 -148h-160z" />
    <glyph glyph-name="Cdotaccent" unicode="&#x10a;" horiz-adv-x="1290" 
d="M739 -21c-146 0 -267.833 31.999 -365.5 95.999s-171 151.667 -220 263s-73.5 237.666 -73.5 378.999v21c0 142.667 25.667 269.5 77 380.5s125 198.5 221 262.5s210.667 96 344 96c94 0 180 -14.667 258 -44s142.667 -66.666 194 -111.999v-314h-157l-21 230
c-21.333 16.667 -45.833 30.667 -73.5 42s-58.334 20 -92.001 26s-70.167 9 -109.5 9c-95.333 0 -176 -24.5 -242 -73.5s-116 -116.5 -150 -202.5s-51 -185.333 -51 -298v-23c0 -122 18.167 -226.167 54.5 -312.5s89.333 -152.166 159 -197.499s154.5 -68 254.5 -68
c46.667 0 92.334 5.66699 137.001 17s81.667 26 111 44l22 203h154v-316c-54.667 -34 -120 -60.5 -196 -79.5s-154.333 -28.5 -235 -28.5zM606 1643v211h207v-211h-207z" />
    <glyph glyph-name="cdotaccent" unicode="&#x10b;" horiz-adv-x="1067" 
d="M563 -21c-98 0 -183.337 22.834 -256.004 68.501s-129 109.167 -169 190.5s-60 175.333 -60 282v42c0 102.667 19.333 194.667 58 276s94.334 145.666 167.001 192.999s159.334 71 260.001 71c87.333 0 163.833 -14.333 229.5 -43s120.834 -68 165.501 -118l5 -260h-154
l-34 189c-22.667 23.333 -51 42 -85 56s-74 21 -120 21c-58.667 0 -110.167 -17.333 -154.5 -52s-78.833 -81 -103.5 -139s-37 -122.667 -37 -194v-42c0 -78.667 11.5 -147 34.5 -205s56 -102.833 99 -134.5s94.167 -47.5 153.5 -47.5c66.667 0 122 18.333 166 55
s71 87 81 151h177l2 -6c-3.33301 -62 -21.666 -120 -54.999 -174s-80.833 -97.5 -142.5 -130.5s-137.5 -49.5 -227.5 -49.5zM452.996 1349v211h207v-211h-207z" />
    <glyph glyph-name="Ccaron" unicode="&#x10c;" horiz-adv-x="1290" 
d="M739 -21c-146 0 -267.833 31.999 -365.5 95.999s-171 151.667 -220 263s-73.5 237.666 -73.5 378.999v21c0 142.667 25.667 269.5 77 380.5s125 198.5 221 262.5s210.667 96 344 96c94 0 180 -14.667 258 -44s142.667 -66.666 194 -111.999v-314h-157l-21 230
c-21.333 16.667 -45.833 30.667 -73.5 42s-58.334 20 -92.001 26s-70.167 9 -109.5 9c-95.333 0 -176 -24.5 -242 -73.5s-116 -116.5 -150 -202.5s-51 -185.333 -51 -298v-23c0 -122 18.167 -226.167 54.5 -312.5s89.333 -152.166 159 -197.499s154.5 -68 254.5 -68
c46.667 0 92.334 5.66699 137.001 17s81.667 26 111 44l22 203h154v-316c-54.667 -34 -120 -60.5 -196 -79.5s-154.333 -28.5 -235 -28.5zM1016 1854v-26l-246 -237h-119l-248 238v25h161l147 -148l145 148h160z" />
    <glyph glyph-name="ccaron" unicode="&#x10d;" horiz-adv-x="1067" 
d="M563 -21c-98 0 -183.337 22.834 -256.004 68.501s-129 109.167 -169 190.5s-60 175.333 -60 282v42c0 102.667 19.333 194.667 58 276s94.334 145.666 167.001 192.999s159.334 71 260.001 71c87.333 0 163.833 -14.333 229.5 -43s120.834 -68 165.501 -118l5 -260h-154
l-34 189c-22.667 23.333 -51 42 -85 56s-74 21 -120 21c-58.667 0 -110.167 -17.333 -154.5 -52s-78.833 -81 -103.5 -139s-37 -122.667 -37 -194v-42c0 -78.667 11.5 -147 34.5 -205s56 -102.833 99 -134.5s94.167 -47.5 153.5 -47.5c66.667 0 122 18.333 166 55
s71 87 81 151h177l2 -6c-3.33301 -62 -21.666 -120 -54.999 -174s-80.833 -97.5 -142.5 -130.5s-137.5 -49.5 -227.5 -49.5zM862.996 1560v-26l-246 -237h-119l-248 238v25h161l147 -148l145 148h160z" />
    <glyph glyph-name="Dcaron" unicode="&#x10e;" horiz-adv-x="1356" 
d="M81 0l-0.00195312 126l163 28v1147l-163 28v127h163h407c128.667 0 240.834 -30.667 336.501 -92s170.167 -145.666 223.5 -252.999s80 -230 80 -368v-31c0 -134.667 -25.667 -255.834 -77 -363.501s-124.166 -192.667 -218.499 -255s-205.833 -93.5 -334.5 -93.5h-580z
M440.998 154h210c92 0 171 25.167 237 75.5s116.833 117.666 152.5 201.999s53.5 177.833 53.5 280.5v33c0 106 -17.833 200.833 -53.5 284.5s-86.5 149.834 -152.5 198.501s-145 73 -237 73h-210v-1147zM983.998 1854v-26l-246 -237h-119l-248 238v25h161l147 -148l145 148
h160z" />
    <glyph glyph-name="dcaron" unicode="&#x10f;" horiz-adv-x="1218" 
d="M499 -21c-88 0 -163.499 21.834 -226.499 65.501s-111.167 104.5 -144.5 182.5s-50 169 -50 273v21c0 116 16.667 217.667 50 305s81.666 155.166 144.999 203.499s139.333 72.5 228 72.5c64 0 120.5 -11.833 169.5 -35.5s90.833 -57.834 125.5 -102.501v441l-163 28v127
h163h197v-1406l163 -28v-126h-334l-16 129c-35.333 -49.333 -78.5 -86.666 -129.5 -111.999s-110.167 -38 -177.5 -38zM549.001 139.001c58.667 0 108.002 13.332 148.002 39.999s73 64.334 99 113.001v502c-25.333 45.333 -58.333 81.333 -99 108s-89.334 40 -146.001 40
c-62.667 0 -114.334 -17.833 -155.001 -53.5s-71 -85 -91 -148s-30 -136.167 -30 -219.5v-21c0 -108.667 22.333 -196 67 -262s113.667 -99 207 -99zM1146 1180l-86 74.001c24 33.333 41.667 66.666 53 99.999s17 72 17 116v90h180v-87
c0 -60.667 -13.167 -115.167 -39.5 -163.5s-67.833 -91.5 -124.5 -129.5z" />
    <glyph glyph-name="Dcroat" unicode="&#x110;" horiz-adv-x="1356" 
d="M81 0l-0.00195312 126l163 28v1147l-163 28v127h163h407c128.667 0 240.834 -30.667 336.501 -92s170.167 -145.666 223.5 -252.999s80 -230 80 -368v-31c0 -134.667 -25.667 -255.834 -77 -363.501s-124.166 -192.667 -218.499 -255s-205.833 -93.5 -334.5 -93.5h-580z
M440.998 154h210c92 0 171 25.167 237 75.5s116.833 117.666 152.5 201.999s53.5 177.833 53.5 280.5v33c0 106 -17.833 200.833 -53.5 284.5s-86.5 149.834 -152.5 198.501s-145 73 -237 73h-210v-1147zM80.998 653v155h603v-155h-603z" />
    <glyph glyph-name="dcroat" unicode="&#x111;" horiz-adv-x="1218" 
d="M499 -21c-88 0 -163.499 21.834 -226.499 65.501s-111.167 104.5 -144.5 182.5s-50 169 -50 273v21c0 116 16.667 217.667 50 305s81.666 155.166 144.999 203.499s139.333 72.5 228 72.5c64 0 120.5 -11.833 169.5 -35.5s90.833 -57.834 125.5 -102.501v441l-163 28v127
h163h197v-1406l163 -28v-126h-334l-16 129c-35.333 -49.333 -78.5 -86.666 -129.5 -111.999s-110.167 -38 -177.5 -38zM549.001 139.001c58.667 0 108.002 13.332 148.002 39.999s73 64.334 99 113.001v502c-25.333 45.333 -58.333 81.333 -99 108s-89.334 40 -146.001 40
c-62.667 0 -114.334 -17.833 -155.001 -53.5s-71 -85 -91 -148s-30 -136.167 -30 -219.5v-21c0 -108.667 22.333 -196 67 -262s113.667 -99 207 -99zM553.003 1154v155h603v-155h-603z" />
    <glyph glyph-name="Emacron" unicode="&#x112;" horiz-adv-x="1306" 
d="M81 0v126l163 28v1147l-163 28v127h1078v-350h-158l-22 198h-538v-474h537v-155h-537v-527h570l22 201h157v-349h-1109zM292 1644v146h721v-146h-721z" />
    <glyph glyph-name="emacron" unicode="&#x113;" horiz-adv-x="1059" 
d="M567 -21c-100 0 -186.997 22.834 -260.997 68.501s-131.167 109.167 -171.5 190.5s-60.5 175.333 -60.5 282v44c0 102.667 21.167 194.5 63.5 275.5s98.666 145 168.999 192s147.166 70.5 230.499 70.5c97.333 0 178.833 -20 244.5 -60s115.167 -96.167 148.5 -168.5
s50 -157.5 50 -255.5v-123h-702l-3 -5c1.33301 -69.333 13.5 -130.833 36.5 -184.5s56.167 -95.834 99.5 -126.501s95.333 -46 156 -46c66.667 0 125.167 9.5 175.5 28.5s93.833 45.167 130.5 78.5l77 -128c-38.667 -37.333 -89.834 -68.833 -153.501 -94.5
s-140.167 -38.5 -229.5 -38.5zM284.003 649.001h498.998v26c0 52 -9.16699 98.5 -27.5 139.5s-45.666 73.333 -81.999 97s-81.833 35.5 -136.5 35.5c-44 0 -84 -12.833 -120 -38.5s-65.667 -60.5 -89 -104.5s-38.666 -94 -45.999 -150zM175.001 1350v146h721v-146h-721z" />
    <glyph glyph-name="Ebreve" unicode="&#x114;" horiz-adv-x="1306" 
d="M81 0v126l163 28v1147l-163 28v127h1078v-350h-158l-22 198h-538v-474h537v-155h-537v-527h570l22 201h157v-349h-1109zM653 1566c-96.667 0 -172.668 26.167 -228.001 78.5s-83 120.166 -83 203.499l2 6h150c0 -48 12.833 -87 38.5 -117s65.834 -45 120.501 -45
c53.333 0 93 15 119 45s39 69 39 117h151l2 -6c-0.666992 -83.333 -28.5 -151.166 -83.5 -203.499s-130.833 -78.5 -227.5 -78.5z" />
    <glyph glyph-name="ebreve" unicode="&#x115;" horiz-adv-x="1059" 
d="M567 -21c-100 0 -186.997 22.834 -260.997 68.501s-131.167 109.167 -171.5 190.5s-60.5 175.333 -60.5 282v44c0 102.667 21.167 194.5 63.5 275.5s98.666 145 168.999 192s147.166 70.5 230.499 70.5c97.333 0 178.833 -20 244.5 -60s115.167 -96.167 148.5 -168.5
s50 -157.5 50 -255.5v-123h-702l-3 -5c1.33301 -69.333 13.5 -130.833 36.5 -184.5s56.167 -95.834 99.5 -126.501s95.333 -46 156 -46c66.667 0 125.167 9.5 175.5 28.5s93.833 45.167 130.5 78.5l77 -128c-38.667 -37.333 -89.834 -68.833 -153.501 -94.5
s-140.167 -38.5 -229.5 -38.5zM284.003 649.001h498.998v26c0 52 -9.16699 98.5 -27.5 139.5s-45.666 73.333 -81.999 97s-81.833 35.5 -136.5 35.5c-44 0 -84 -12.833 -120 -38.5s-65.667 -60.5 -89 -104.5s-38.666 -94 -45.999 -150zM536.001 1272
c-96.667 0 -172.668 26.167 -228.001 78.5s-83 120.166 -83 203.499l2 6h150c0 -48 12.833 -87 38.5 -117s65.834 -45 120.501 -45c53.333 0 93 15 119 45s39 69 39 117h151l2 -6c-0.666992 -83.333 -28.5 -151.166 -83.5 -203.499s-130.833 -78.5 -227.5 -78.5z" />
    <glyph glyph-name="Edotaccent" unicode="&#x116;" horiz-adv-x="1306" 
d="M81 0v126l163 28v1147l-163 28v127h1078v-350h-158l-22 198h-538v-474h537v-155h-537v-527h570l22 201h157v-349h-1109zM549 1643v211h207v-211h-207z" />
    <glyph glyph-name="edotaccent" unicode="&#x117;" horiz-adv-x="1059" 
d="M567 -21c-100 0 -186.997 22.834 -260.997 68.501s-131.167 109.167 -171.5 190.5s-60.5 175.333 -60.5 282v44c0 102.667 21.167 194.5 63.5 275.5s98.666 145 168.999 192s147.166 70.5 230.499 70.5c97.333 0 178.833 -20 244.5 -60s115.167 -96.167 148.5 -168.5
s50 -157.5 50 -255.5v-123h-702l-3 -5c1.33301 -69.333 13.5 -130.833 36.5 -184.5s56.167 -95.834 99.5 -126.501s95.333 -46 156 -46c66.667 0 125.167 9.5 175.5 28.5s93.833 45.167 130.5 78.5l77 -128c-38.667 -37.333 -89.834 -68.833 -153.501 -94.5
s-140.167 -38.5 -229.5 -38.5zM284.003 649.001h498.998v26c0 52 -9.16699 98.5 -27.5 139.5s-45.666 73.333 -81.999 97s-81.833 35.5 -136.5 35.5c-44 0 -84 -12.833 -120 -38.5s-65.667 -60.5 -89 -104.5s-38.666 -94 -45.999 -150zM432.001 1349v211h207v-211h-207z" />
    <glyph glyph-name="Eogonek" unicode="&#x118;" horiz-adv-x="1306" 
d="M81 0v126l163 28v1147l-163 28v127h1078v-350h-158l-22 198h-538v-474h537v-155h-537v-527h570l22 201h157v-349h-1109zM1101 -432c-70 0 -125.831 18.334 -167.498 55.001s-62.5 88 -62.5 154c0 53.333 19.833 103.833 59.5 151.5s102.5 90.5 188.5 128.5l71 -57
c-46.667 -34.667 -83.167 -67.834 -109.5 -99.501s-39.5 -65.5 -39.5 -101.5c0 -28 7.5 -50 22.5 -66s39.5 -24 73.5 -24c18 0 34.667 2.5 50 7.5s31.666 11.167 48.999 18.5l33 -123c-24 -12.667 -49.833 -23.167 -77.5 -31.5s-57.834 -12.5 -90.501 -12.5z" />
    <glyph glyph-name="eogonek" unicode="&#x119;" horiz-adv-x="1059" 
d="M567 -21c-100 0 -186.997 22.834 -260.997 68.501s-131.167 109.167 -171.5 190.5s-60.5 175.333 -60.5 282v44c0 102.667 21.167 194.5 63.5 275.5s98.666 145 168.999 192s147.166 70.5 230.499 70.5c97.333 0 178.833 -20 244.5 -60s115.167 -96.167 148.5 -168.5
s50 -157.5 50 -255.5v-123h-702l-3 -5c1.33301 -69.333 13.5 -130.833 36.5 -184.5s56.167 -95.834 99.5 -126.501s95.333 -46 156 -46c66.667 0 125.167 9.5 175.5 28.5s93.833 45.167 130.5 78.5l77 -128c-38.667 -37.333 -89.834 -68.833 -153.501 -94.5
s-140.167 -38.5 -229.5 -38.5zM284.003 649.001h498.998v26c0 52 -9.16699 98.5 -27.5 139.5s-45.666 73.333 -81.999 97s-81.833 35.5 -136.5 35.5c-44 0 -84 -12.833 -120 -38.5s-65.667 -60.5 -89 -104.5s-38.666 -94 -45.999 -150zM749.001 -431.999
c-64.667 0 -118 19.167 -160 57.5s-63 92.5 -63 162.5c0 69.333 22.667 132 68 188s115.333 102.333 210 139l71 -57c-55.333 -36 -99 -73.5 -131 -112.5s-48 -84.167 -48 -135.5c0 -32.667 8.16699 -57.667 24.5 -75s41.833 -26 76.5 -26c19.333 0 36.833 2.5 52.5 7.5
s32.167 11.167 49.5 18.5l33 -123c-24 -12.667 -50.5 -23.167 -79.5 -31.5s-63.5 -12.5 -103.5 -12.5z" />
    <glyph glyph-name="Ecaron" unicode="&#x11a;" horiz-adv-x="1306" 
d="M81 0v126l163 28v1147l-163 28v127h1078v-350h-158l-22 198h-538v-474h537v-155h-537v-527h570l22 201h157v-349h-1109zM959 1854v-26l-246 -237h-119l-248 238v25h161l147 -148l145 148h160z" />
    <glyph glyph-name="ecaron" unicode="&#x11b;" horiz-adv-x="1059" 
d="M567 -21c-100 0 -186.997 22.834 -260.997 68.501s-131.167 109.167 -171.5 190.5s-60.5 175.333 -60.5 282v44c0 102.667 21.167 194.5 63.5 275.5s98.666 145 168.999 192s147.166 70.5 230.499 70.5c97.333 0 178.833 -20 244.5 -60s115.167 -96.167 148.5 -168.5
s50 -157.5 50 -255.5v-123h-702l-3 -5c1.33301 -69.333 13.5 -130.833 36.5 -184.5s56.167 -95.834 99.5 -126.501s95.333 -46 156 -46c66.667 0 125.167 9.5 175.5 28.5s93.833 45.167 130.5 78.5l77 -128c-38.667 -37.333 -89.834 -68.833 -153.501 -94.5
s-140.167 -38.5 -229.5 -38.5zM284.003 649.001h498.998v26c0 52 -9.16699 98.5 -27.5 139.5s-45.666 73.333 -81.999 97s-81.833 35.5 -136.5 35.5c-44 0 -84 -12.833 -120 -38.5s-65.667 -60.5 -89 -104.5s-38.666 -94 -45.999 -150zM842.001 1560v-26l-246 -237h-119
l-248 238v25h161l147 -148l145 148h160z" />
    <glyph glyph-name="Gcircumflex" unicode="&#x11c;" horiz-adv-x="1346" 
d="M738 -21c-134.667 0 -251.333 31.167 -350 93.5s-174.667 148.833 -228 259.5s-80 238.667 -80 384v24c0 146.667 26.833 275.167 80.5 385.5s127.167 196.5 220.5 258.5s199.333 93 318 93c113.333 0 209.5 -13 288.5 -39s146.5 -61 202.5 -105v-294h-162l-21 211
c-32.667 21.333 -72.667 37.5 -120 48.5s-103.333 16.5 -168 16.5c-83.333 0 -158.333 -24 -225 -72s-119.334 -114.833 -158.001 -200.5s-58 -185.834 -58 -300.501v-26c0 -116 17.833 -217.167 53.5 -303.5s87.834 -153.333 156.501 -201s152 -71.5 250 -71.5
c66.667 0 123 5.83301 169 17.5s86.667 26.834 122 45.501v342l-279 10v145h476v-564c-42 -39.333 -102.167 -75.333 -180.5 -108s-180.833 -49 -307.5 -49zM366.001 1591v26l246 237h119l248 -238v-25h-161l-147 148l-145 -148h-160z" />
    <glyph glyph-name="gcircumflex" unicode="&#x11d;" horiz-adv-x="1157" 
d="M549 -437c-52 0 -108.334 7.16797 -169.001 21.501s-114 33.833 -160 58.5l51 153c36.667 -19.333 80 -35.333 130 -48s98.667 -19 146 -19c88 0 152.5 24.667 193.5 74s61.5 119.666 61.5 210.999v103c-35.333 -45.333 -77.666 -79.666 -126.999 -102.999
s-106 -35 -170 -35c-88 0 -164 21.833 -228 65.5s-113.167 104.667 -147.5 183s-51.5 169.166 -51.5 272.499v21c0 116 17.167 217.667 51.5 305s83.5 155.166 147.5 203.499s140.667 72.5 230 72.5c68 0 127.667 -13.333 179 -40s94.333 -65.334 129 -116.001l18 136h166
v-1068c0 -93.333 -17.5 -173.666 -52.5 -240.999s-86 -119.166 -153 -155.499s-148.5 -54.5 -244.5 -54.5zM553.999 139.001c59.333 0 109.002 13.5 149.002 40.5s73 65.167 99 114.5v498c-25.333 46 -58.333 82.5 -99 109.5s-89.667 40.5 -147 40.5
c-62.667 0 -114.834 -18 -156.501 -54s-72.834 -85.5 -93.501 -148.5s-31 -135.833 -31 -218.5v-21c0 -108.667 23 -196 69 -262s116 -99 210 -99zM969.001 921.001l-77 161h241v-126zM278.001 1297v26l246 237h119l248 -238v-25h-161l-147 148l-145 -148h-160z" />
    <glyph glyph-name="Gbreve" unicode="&#x11e;" horiz-adv-x="1346" 
d="M738 -21c-134.667 0 -251.333 31.167 -350 93.5s-174.667 148.833 -228 259.5s-80 238.667 -80 384v24c0 146.667 26.833 275.167 80.5 385.5s127.167 196.5 220.5 258.5s199.333 93 318 93c113.333 0 209.5 -13 288.5 -39s146.5 -61 202.5 -105v-294h-162l-21 211
c-32.667 21.333 -72.667 37.5 -120 48.5s-103.333 16.5 -168 16.5c-83.333 0 -158.333 -24 -225 -72s-119.334 -114.833 -158.001 -200.5s-58 -185.834 -58 -300.501v-26c0 -116 17.833 -217.167 53.5 -303.5s87.834 -153.333 156.501 -201s152 -71.5 250 -71.5
c66.667 0 123 5.83301 169 17.5s86.667 26.834 122 45.501v342l-279 10v145h476v-564c-42 -39.333 -102.167 -75.333 -180.5 -108s-180.833 -49 -307.5 -49zM673.001 1566c-96.667 0 -172.668 26.167 -228.001 78.5s-83 120.166 -83 203.499l2 6h150
c0 -48 12.833 -87 38.5 -117s65.834 -45 120.501 -45c53.333 0 93 15 119 45s39 69 39 117h151l2 -6c-0.666992 -83.333 -28.5 -151.166 -83.5 -203.499s-130.833 -78.5 -227.5 -78.5z" />
    <glyph glyph-name="gbreve" unicode="&#x11f;" horiz-adv-x="1157" 
d="M549 -437c-52 0 -108.334 7.16797 -169.001 21.501s-114 33.833 -160 58.5l51 153c36.667 -19.333 80 -35.333 130 -48s98.667 -19 146 -19c88 0 152.5 24.667 193.5 74s61.5 119.666 61.5 210.999v103c-35.333 -45.333 -77.666 -79.666 -126.999 -102.999
s-106 -35 -170 -35c-88 0 -164 21.833 -228 65.5s-113.167 104.667 -147.5 183s-51.5 169.166 -51.5 272.499v21c0 116 17.167 217.667 51.5 305s83.5 155.166 147.5 203.499s140.667 72.5 230 72.5c68 0 127.667 -13.333 179 -40s94.333 -65.334 129 -116.001l18 136h166
v-1068c0 -93.333 -17.5 -173.666 -52.5 -240.999s-86 -119.166 -153 -155.499s-148.5 -54.5 -244.5 -54.5zM553.999 139.001c59.333 0 109.002 13.5 149.002 40.5s73 65.167 99 114.5v498c-25.333 46 -58.333 82.5 -99 109.5s-89.667 40.5 -147 40.5
c-62.667 0 -114.834 -18 -156.501 -54s-72.834 -85.5 -93.501 -148.5s-31 -135.833 -31 -218.5v-21c0 -108.667 23 -196 69 -262s116 -99 210 -99zM969.001 921.001l-77 161h241v-126zM585.001 1272c-96.667 0 -172.668 26.167 -228.001 78.5s-83 120.166 -83 203.499l2 6
h150c0 -48 12.833 -87 38.5 -117s65.834 -45 120.501 -45c53.333 0 93 15 119 45s39 69 39 117h151l2 -6c-0.666992 -83.333 -28.5 -151.166 -83.5 -203.499s-130.833 -78.5 -227.5 -78.5z" />
    <glyph glyph-name="Gdotaccent" unicode="&#x120;" horiz-adv-x="1346" 
d="M738 -21c-134.667 0 -251.333 31.167 -350 93.5s-174.667 148.833 -228 259.5s-80 238.667 -80 384v24c0 146.667 26.833 275.167 80.5 385.5s127.167 196.5 220.5 258.5s199.333 93 318 93c113.333 0 209.5 -13 288.5 -39s146.5 -61 202.5 -105v-294h-162l-21 211
c-32.667 21.333 -72.667 37.5 -120 48.5s-103.333 16.5 -168 16.5c-83.333 0 -158.333 -24 -225 -72s-119.334 -114.833 -158.001 -200.5s-58 -185.834 -58 -300.501v-26c0 -116 17.833 -217.167 53.5 -303.5s87.834 -153.333 156.501 -201s152 -71.5 250 -71.5
c66.667 0 123 5.83301 169 17.5s86.667 26.834 122 45.501v342l-279 10v145h476v-564c-42 -39.333 -102.167 -75.333 -180.5 -108s-180.833 -49 -307.5 -49zM569.001 1643v211h207v-211h-207z" />
    <glyph glyph-name="gdotaccent" unicode="&#x121;" horiz-adv-x="1157" 
d="M549 -437c-52 0 -108.334 7.16797 -169.001 21.501s-114 33.833 -160 58.5l51 153c36.667 -19.333 80 -35.333 130 -48s98.667 -19 146 -19c88 0 152.5 24.667 193.5 74s61.5 119.666 61.5 210.999v103c-35.333 -45.333 -77.666 -79.666 -126.999 -102.999
s-106 -35 -170 -35c-88 0 -164 21.833 -228 65.5s-113.167 104.667 -147.5 183s-51.5 169.166 -51.5 272.499v21c0 116 17.167 217.667 51.5 305s83.5 155.166 147.5 203.499s140.667 72.5 230 72.5c68 0 127.667 -13.333 179 -40s94.333 -65.334 129 -116.001l18 136h166
v-1068c0 -93.333 -17.5 -173.666 -52.5 -240.999s-86 -119.166 -153 -155.499s-148.5 -54.5 -244.5 -54.5zM553.999 139.001c59.333 0 109.002 13.5 149.002 40.5s73 65.167 99 114.5v498c-25.333 46 -58.333 82.5 -99 109.5s-89.667 40.5 -147 40.5
c-62.667 0 -114.834 -18 -156.501 -54s-72.834 -85.5 -93.501 -148.5s-31 -135.833 -31 -218.5v-21c0 -108.667 23 -196 69 -262s116 -99 210 -99zM969.001 921.001l-77 161h241v-126zM481.001 1349v211h207v-211h-207z" />
    <glyph glyph-name="uni0122" unicode="&#x122;" horiz-adv-x="1346" 
d="M738 -21c-134.667 0 -251.333 31.167 -350 93.5s-174.667 148.833 -228 259.5s-80 238.667 -80 384v24c0 146.667 26.833 275.167 80.5 385.5s127.167 196.5 220.5 258.5s199.333 93 318 93c113.333 0 209.5 -13 288.5 -39s146.5 -61 202.5 -105v-294h-162l-21 211
c-32.667 21.333 -72.667 37.5 -120 48.5s-103.333 16.5 -168 16.5c-83.333 0 -158.333 -24 -225 -72s-119.334 -114.833 -158.001 -200.5s-58 -185.834 -58 -300.501v-26c0 -116 17.833 -217.167 53.5 -303.5s87.834 -153.333 156.501 -201s152 -71.5 250 -71.5
c66.667 0 123 5.83301 169 17.5s86.667 26.834 122 45.501v342l-279 10v145h476v-564c-42 -39.333 -102.167 -75.333 -180.5 -108s-180.833 -49 -307.5 -49zM614.001 -537l-86 74.001c24 33.333 41.667 66.666 53 99.999s17 72 17 116v90h180v-87
c0 -60.667 -13.167 -115.167 -39.5 -163.5s-67.833 -91.5 -124.5 -129.5z" />
    <glyph glyph-name="uni0123" unicode="&#x123;" horiz-adv-x="1157" 
d="M549 -437c-52 0 -108.334 7.16797 -169.001 21.501s-114 33.833 -160 58.5l51 153c36.667 -19.333 80 -35.333 130 -48s98.667 -19 146 -19c88 0 152.5 24.667 193.5 74s61.5 119.666 61.5 210.999v103c-35.333 -45.333 -77.666 -79.666 -126.999 -102.999
s-106 -35 -170 -35c-88 0 -164 21.833 -228 65.5s-113.167 104.667 -147.5 183s-51.5 169.166 -51.5 272.499v21c0 116 17.167 217.667 51.5 305s83.5 155.166 147.5 203.499s140.667 72.5 230 72.5c68 0 127.667 -13.333 179 -40s94.333 -65.334 129 -116.001l18 136h166
v-1068c0 -93.333 -17.5 -173.666 -52.5 -240.999s-86 -119.166 -153 -155.499s-148.5 -54.5 -244.5 -54.5zM553.999 139.001c59.333 0 109.002 13.5 149.002 40.5s73 65.167 99 114.5v498c-25.333 46 -58.333 82.5 -99 109.5s-89.667 40.5 -147 40.5
c-62.667 0 -114.834 -18 -156.501 -54s-72.834 -85.5 -93.501 -148.5s-31 -135.833 -31 -218.5v-21c0 -108.667 23 -196 69 -262s116 -99 210 -99zM969.001 921.001l-77 161h241v-126zM626.001 1679l86 -74.001c-24 -33.333 -41.667 -66.666 -53 -99.999s-17 -72 -17 -116
v-90h-180v87c0 61.333 13.167 116 39.5 164s67.833 91 124.5 129z" />
    <glyph glyph-name="Hcircumflex" unicode="&#x124;" horiz-adv-x="1578" 
d="M81 0v126l163 28v1147l-163 28v127h523v-127l-163 -28v-503h696v503l-163 28v127h163h197h163v-127l-163 -28v-1147l163 -28v-126h-523v126l163 28v489h-696v-489l163 -28v-126h-523zM482 1591v26l246 237h119l248 -238v-25h-161l-147 148l-145 -148h-160z" />
    <glyph glyph-name="hcircumflex" unicode="&#x125;" horiz-adv-x="1315" 
d="M49 0v126l163 28v1251l-163 28v127h360v-622c37.333 52 83 92.333 137 121s114 43 180 43c116 0 206 -34.667 270 -104s96 -176 96 -320v-524l163 -28v-126h-523v126l163 28v526c0 89.333 -19.167 155.333 -57.5 198s-95.5 64 -171.5 64
c-54 0 -103.167 -12.833 -147.5 -38.5s-80.833 -60.5 -109.5 -104.5v-645l163 -28v-126h-523zM11 1671v26l246 237h119l248 -238v-25h-161l-147 148l-145 -148h-160z" />
    <glyph glyph-name="Hbar" unicode="&#x126;" horiz-adv-x="1578" 
d="M81 0v126l163 28v1147l-163 28v127h523v-127l-163 -28v-503h696v503l-163 28v127h163h197h163v-127l-163 -28v-1147l163 -28v-126h-523v126l163 28v489h-696v-489l163 -28v-126h-523zM93 955v145h1392v-145h-1392z" />
    <glyph glyph-name="hbar" unicode="&#x127;" horiz-adv-x="1315" 
d="M49 0v126l163 28v1251l-163 28v127h360v-622c37.333 52 83 92.333 137 121s114 43 180 43c116 0 206 -34.667 270 -104s96 -176 96 -320v-524l163 -28v-126h-523v126l163 28v526c0 89.333 -19.167 155.333 -57.5 198s-95.5 64 -171.5 64
c-54 0 -103.167 -12.833 -147.5 -38.5s-80.833 -60.5 -109.5 -104.5v-645l163 -28v-126h-523zM49 1154v155h603v-155h-603z" />
    <glyph glyph-name="Itilde" unicode="&#x128;" horiz-adv-x="685" 
d="M81 0v126l163 28v1147l-163 28v127h523v-127l-163 -28v-1147l163 -28v-126h-523zM102 1599l-106.999 22.001c0 42.667 9.33301 81.667 28 117s43.667 63.833 75 85.5s66.333 32.5 105 32.5c30 0 62 -8.33301 96 -25l98.5 -50c31.667 -16.667 58.834 -25 81.501 -25
c27.333 0 51 10.833 71 32.5s30 48.5 30 80.5l108 -28c0 -42.667 -9.33301 -81.334 -28 -116.001s-43.834 -62.167 -75.501 -82.5s-66.834 -30.5 -105.501 -30.5c-32.667 0 -66 8.16699 -100 24.5s-66.167 32.833 -96.5 49.5s-56.833 25 -79.5 25
c-28 0 -51.833 -10.833 -71.5 -32.5s-29.5 -48.167 -29.5 -79.5z" />
    <glyph glyph-name="itilde" unicode="&#x129;" horiz-adv-x="652" 
d="M67 0v126l163 28v773l-163 28v127h360v-928l163 -28v-126h-523zM84 1305l-106.999 22.001c0 42.667 9.33301 81.667 28 117s43.667 63.833 75 85.5s66.333 32.5 105 32.5c30 0 62 -8.33301 96 -25l98.5 -50c31.667 -16.667 58.834 -25 81.501 -25
c27.333 0 51 10.833 71 32.5s30 48.5 30 80.5l108 -28c0 -42.667 -9.33301 -81.334 -28 -116.001s-43.834 -62.167 -75.501 -82.5s-66.834 -30.5 -105.501 -30.5c-32.667 0 -66 8.16699 -100 24.5s-66.167 32.833 -96.5 49.5s-56.833 25 -79.5 25
c-28 0 -51.833 -10.833 -71.5 -32.5s-29.5 -48.167 -29.5 -79.5z" />
    <glyph glyph-name="Imacron" unicode="&#x12a;" horiz-adv-x="685" 
d="M81 0v126l163 28v1147l-163 28v127h523v-127l-163 -28v-1147l163 -28v-126h-523zM-19 1644v146h721v-146h-721z" />
    <glyph glyph-name="imacron" unicode="&#x12b;" horiz-adv-x="652" 
d="M67 0v126l163 28v773l-163 28v127h360v-928l163 -28v-126h-523zM-37 1350v146h721v-146h-721z" />
    <glyph glyph-name="Ibreve" unicode="&#x12c;" horiz-adv-x="685" 
d="M81 0v126l163 28v1147l-163 28v127h523v-127l-163 -28v-1147l163 -28v-126h-523zM342 1566c-96.667 0 -172.668 26.167 -228.001 78.5s-83 120.166 -83 203.499l2 6h150c0 -48 12.833 -87 38.5 -117s65.834 -45 120.501 -45c53.333 0 93 15 119 45s39 69 39 117h151l2 -6
c-0.666992 -83.333 -28.5 -151.166 -83.5 -203.499s-130.833 -78.5 -227.5 -78.5z" />
    <glyph glyph-name="ibreve" unicode="&#x12d;" horiz-adv-x="652" 
d="M67 0v126l163 28v773l-163 28v127h360v-928l163 -28v-126h-523zM324 1272c-96.667 0 -172.668 26.167 -228.001 78.5s-83 120.166 -83 203.499l2 6h150c0 -48 12.833 -87 38.5 -117s65.834 -45 120.501 -45c53.333 0 93 15 119 45s39 69 39 117h151l2 -6
c-0.666992 -83.333 -28.5 -151.166 -83.5 -203.499s-130.833 -78.5 -227.5 -78.5z" />
    <glyph glyph-name="Iogonek" unicode="&#x12e;" horiz-adv-x="685" 
d="M81 0v126l163 28v1147l-163 28v127h523v-127l-163 -28v-1147l163 -28v-126h-523zM515 -432c-70 0 -125.831 18.334 -167.498 55.001s-62.5 88 -62.5 154c0 53.333 19.833 103.833 59.5 151.5s102.5 90.5 188.5 128.5l71 -57
c-46.667 -34.667 -83.167 -67.834 -109.5 -99.501s-39.5 -65.5 -39.5 -101.5c0 -28 7.5 -50 22.5 -66s39.5 -24 73.5 -24c18 0 34.667 2.5 50 7.5s31.666 11.167 48.999 18.5l33 -123c-24 -12.667 -49.833 -23.167 -77.5 -31.5s-57.834 -12.5 -90.501 -12.5z" />
    <glyph glyph-name="iogonek" unicode="&#x12f;" horiz-adv-x="652" 
d="M67 0v126l163 28v773l-163 28v127h360v-928l163 -28v-126h-523zM220 1349v211h207v-211h-207zM501 -432c-70 0 -125.831 18.334 -167.498 55.001s-62.5 88 -62.5 154c0 53.333 19.833 103.833 59.5 151.5s102.5 90.5 188.5 128.5l71 -57
c-46.667 -34.667 -83.167 -67.834 -109.5 -99.501s-39.5 -65.5 -39.5 -101.5c0 -28 7.5 -50 22.5 -66s39.5 -24 73.5 -24c18 0 34.667 2.5 50 7.5s31.666 11.167 48.999 18.5l33 -123c-24 -12.667 -49.833 -23.167 -77.5 -31.5s-57.834 -12.5 -90.501 -12.5z" />
    <glyph glyph-name="Idotaccent" unicode="&#x130;" horiz-adv-x="685" 
d="M81 0v126l163 28v1147l-163 28v127h523v-127l-163 -28v-1147l163 -28v-126h-523zM238 1643v211h207v-211h-207z" />
    <glyph glyph-name="dotlessi" unicode="&#x131;" horiz-adv-x="652" 
d="M67 0v126l163 28v773l-163 28v127h360v-928l163 -28v-126h-523z" />
    <glyph glyph-name="IJ" unicode="&#x132;" horiz-adv-x="1845" 
d="M81 0v126l163 28v1147l-163 28v127h523v-127l-163 -28v-1147l163 -28v-126h-523zM1165 -21c-80.667 0 -153.831 15.999 -219.498 47.999s-118.334 80.333 -158.001 145s-61.5 145.667 -65.5 243l2 6h189c2.66699 -98 25.167 -170 67.5 -216s102.833 -69 181.5 -69
c55.333 0 100.666 11.833 135.999 35.5s61.5 56.334 78.5 98.001s25.5 89.5 25.5 143.5v888l-194 26v129h554v-127l-163 -28v-888c0 -86.667 -16.5 -162.667 -49.5 -228s-81.667 -116 -146 -152s-143.833 -54 -238.5 -54z" />
    <glyph glyph-name="ij" unicode="&#x133;" horiz-adv-x="1244" 
d="M67 0v126l163 28v773l-163 28v127h360v-928l163 -28v-126h-523zM220 1349v211h207v-211h-207zM729 -437c-21.333 0 -40.666 1.49902 -57.999 4.49902s-35.333 7.5 -54 13.5l13 150c9.33301 -3.33301 25.166 -6.33301 47.499 -9s39.5 -4 51.5 -4
c39.333 0 70.5 17.167 93.5 51.5s34.5 81.5 34.5 141.5v1016l-163 28v127h360v-1171c0 -111.333 -28.667 -197.166 -86 -257.499s-137 -90.5 -239 -90.5zM847 1349v211h207v-211h-207z" />
    <glyph glyph-name="Jcircumflex" unicode="&#x134;" horiz-adv-x="1169" 
d="M503 -21c-80.667 0 -153.831 15.999 -219.498 47.999s-118.334 80.333 -158.001 145s-61.5 145.667 -65.5 243l2 6h189c2.66699 -98 25.167 -170 67.5 -216s102.833 -69 181.5 -69c55.333 0 100.666 11.833 135.999 35.5s61.5 56.334 78.5 98.001s25.5 89.5 25.5 143.5
v888l-194 26v129h554v-127l-163 -28v-888c0 -86.667 -16.5 -162.667 -49.5 -228s-81.667 -116 -146 -152s-143.833 -54 -238.5 -54zM528.003 1591v26l246 237h119l248 -238v-25h-161l-147 148l-145 -148h-160z" />
    <glyph glyph-name="jcircumflex" unicode="&#x135;" horiz-adv-x="525" 
d="M56 -437c-21.333 0 -40.666 1.49902 -57.999 4.49902s-35.333 7.5 -54 13.5l13 150c9.33301 -3.33301 25.166 -6.33301 47.499 -9s39.5 -4 51.5 -4c39.333 0 70.5 17.167 93.5 51.5s34.5 81.5 34.5 141.5v1016l-163 28v127h360v-1171
c0 -111.333 -28.667 -197.166 -86 -257.499s-137 -90.5 -239 -90.5zM-29 1297v26l246 237h119l248 -238v-25h-161l-147 148l-145 -148h-160z" />
    <glyph glyph-name="uni0136" unicode="&#x136;" horiz-adv-x="1501" 
d="M427 421l-105 122l691 767l4 5l-109 14v127h467v-127l-137 -25zM81 0v126l163 28v1147l-163 28v127h523v-127l-163 -28v-1147l163 -28v-126h-523zM941 0v126l120 14l-1 1l-403 559l110 155l526 -704l134 -25v-126h-486zM692 -537l-86 74.001
c24 33.333 41.667 66.666 53 99.999s17 72 17 116v90h180v-87c0 -60.667 -13.167 -115.167 -39.5 -163.5s-67.833 -91.5 -124.5 -129.5z" />
    <glyph glyph-name="uni0137" unicode="&#x137;" horiz-adv-x="1287" 
d="M64 0v126l163 28v1251l-163 28v127h360v-1406l163 -28v-126h-523zM759 0v126l110 13l-3 4l-313 404l102 157l437 -554l156 -24v-126h-489zM410 313l-73 155l470 468l5 6l-116 13v127h466v-127l-139 -26zM585 -537l-86 74.001c24 33.333 41.667 66.666 53 99.999
s17 72 17 116v90h180v-87c0 -60.667 -13.167 -115.167 -39.5 -163.5s-67.833 -91.5 -124.5 -129.5z" />
    <glyph glyph-name="kgreenlandic" unicode="&#x138;" horiz-adv-x="1257" 
d="M410 313l-73 155l470 468l5 6l-116 13v127h466v-127l-139 -26zM64 0v126l163 28v773l-163 28v127h360v-928l163 -28v-126h-523zM949 0l-398 547l104 157l411 -554l120 -24v-126h-237z" />
    <glyph glyph-name="Lacute" unicode="&#x139;" horiz-adv-x="1210" 
d="M81 0v126l163 28v1147l-163 28v127h163h197h163v-127l-163 -28v-1150h515l23 230h151v-381h-1049zM232 1582l184 272h230l2 -6l-269 -266h-138h-9z" />
    <glyph glyph-name="lacute" unicode="&#x13a;" horiz-adv-x="653" 
d="M64 0v126l163 28v1251l-163 28v127h360v-1406l163 -28v-126h-523zM206 1662l184 272h230l2 -6l-269 -266h-138h-9z" />
    <glyph glyph-name="uni013B" unicode="&#x13b;" horiz-adv-x="1210" 
d="M81 0v126l163 28v1147l-163 28v127h163h197h163v-127l-163 -28v-1150h515l23 230h151v-381h-1049zM546 -537l-86 74.001c24 33.333 41.667 66.666 53 99.999s17 72 17 116v90h180v-87c0 -60.667 -13.167 -115.167 -39.5 -163.5s-67.833 -91.5 -124.5 -129.5z" />
    <glyph glyph-name="uni013C" unicode="&#x13c;" horiz-adv-x="653" 
d="M64 0v126l163 28v1251l-163 28v127h360v-1406l163 -28v-126h-523zM268 -537l-86 74.001c24 33.333 41.667 66.666 53 99.999s17 72 17 116v90h180v-87c0 -60.667 -13.167 -115.167 -39.5 -163.5s-67.833 -91.5 -124.5 -129.5z" />
    <glyph glyph-name="Lcaron" unicode="&#x13d;" horiz-adv-x="1210" 
d="M81 0v126l163 28v1147l-163 28v127h163h197h163v-127l-163 -28v-1150h515l23 230h151v-381h-1049zM973 1076l-86 74.001c24 33.333 41.667 66.666 53 99.999s17 72 17 116v90h180v-87c0 -60.667 -13.167 -115.167 -39.5 -163.5s-67.833 -91.5 -124.5 -129.5z" />
    <glyph glyph-name="lcaron" unicode="&#x13e;" horiz-adv-x="653" 
d="M64 0v126l163 28v1251l-163 28v127h360v-1406l163 -28v-126h-523zM577 1180l-86 74.001c24 33.333 41.667 66.666 53 99.999s17 72 17 116v90h180v-87c0 -60.667 -13.167 -115.167 -39.5 -163.5s-67.833 -91.5 -124.5 -129.5z" />
    <glyph glyph-name="Ldot" unicode="&#x13f;" horiz-adv-x="1210" 
d="M81 0v126l163 28v1147l-163 28v127h163h197h163v-127l-163 -28v-1150h515l23 230h151v-381h-1049zM898 630v202h197v-202h-197z" />
    <glyph glyph-name="ldot" unicode="&#x140;" horiz-adv-x="653" 
d="M64 0v126l163 28v1251l-163 28v127h360v-1406l163 -28v-126h-523zM573 630v202h197v-202h-197z" />
    <glyph glyph-name="Lslash" unicode="&#x141;" horiz-adv-x="1210" 
d="M81 0v126l163 28v1147l-163 28v127h163h197h163v-127l-163 -28v-1150h515l23 230h151v-381h-1049zM86 577v165l589 187v-165z" />
    <glyph glyph-name="lslash" unicode="&#x142;" horiz-adv-x="653" 
d="M64 0v126l163 28v1251l-163 28v127h360v-1406l163 -28v-126h-523zM82 577v165l490 187v-165z" />
    <glyph glyph-name="Nacute" unicode="&#x143;" horiz-adv-x="1592" 
d="M83 0v126l163 28v1147l-163 28v127h163h199l714 -1135l6 2v978l-179 28v127h360h163v-127l-163 -28v-1301h-180l-733 1141l-6 -2v-985l179 -28v-126h-523zM675 1582l184 272h230l2 -6l-269 -266h-138h-9z" />
    <glyph glyph-name="nacute" unicode="&#x144;" horiz-adv-x="1343" 
d="M74 0l0.00195312 125.999l163 28v773l-163 28v127h339l14 -161c36 57.333 81.167 101.833 135.5 133.5s116.166 47.5 185.499 47.5c116.667 0 207 -34.167 271 -102.5s96 -173.833 96 -316.5v-529l163 -28v-126h-523v126l163 28v525c0 95.333 -18.833 163 -56.5 203
s-95.167 60 -172.5 60c-56.667 0 -106.834 -13.667 -150.501 -41s-78.5 -64.666 -104.5 -111.999v-635l163 -28v-126h-523zM554.002 1288l184 272h230l2 -6l-269 -266h-138h-9z" />
    <glyph glyph-name="uni0145" unicode="&#x145;" horiz-adv-x="1592" 
d="M83 0v126l163 28v1147l-163 28v127h163h199l714 -1135l6 2v978l-179 28v127h360h163v-127l-163 -28v-1301h-180l-733 1141l-6 -2v-985l179 -28v-126h-523zM737 -537l-86 74.001c24 33.333 41.667 66.666 53 99.999s17 72 17 116v90h180v-87
c0 -60.667 -13.167 -115.167 -39.5 -163.5s-67.833 -91.5 -124.5 -129.5z" />
    <glyph glyph-name="uni0146" unicode="&#x146;" horiz-adv-x="1343" 
d="M74 0l0.00195312 125.999l163 28v773l-163 28v127h339l14 -161c36 57.333 81.167 101.833 135.5 133.5s116.166 47.5 185.499 47.5c116.667 0 207 -34.167 271 -102.5s96 -173.833 96 -316.5v-529l163 -28v-126h-523v126l163 28v525c0 95.333 -18.833 163 -56.5 203
s-95.167 60 -172.5 60c-56.667 0 -106.834 -13.667 -150.501 -41s-78.5 -64.666 -104.5 -111.999v-635l163 -28v-126h-523zM616.002 -537.001l-86 74.001c24 33.333 41.667 66.666 53 99.999s17 72 17 116v90h180v-87c0 -60.667 -13.167 -115.167 -39.5 -163.5
s-67.833 -91.5 -124.5 -129.5z" />
    <glyph glyph-name="Ncaron" unicode="&#x147;" horiz-adv-x="1592" 
d="M83 0v126l163 28v1147l-163 28v127h163h199l714 -1135l6 2v978l-179 28v127h360h163v-127l-163 -28v-1301h-180l-733 1141l-6 -2v-985l179 -28v-126h-523zM1102 1854v-26l-246 -237h-119l-248 238v25h161l147 -148l145 148h160z" />
    <glyph glyph-name="ncaron" unicode="&#x148;" horiz-adv-x="1343" 
d="M74 0l0.00195312 125.999l163 28v773l-163 28v127h339l14 -161c36 57.333 81.167 101.833 135.5 133.5s116.166 47.5 185.499 47.5c116.667 0 207 -34.167 271 -102.5s96 -173.833 96 -316.5v-529l163 -28v-126h-523v126l163 28v525c0 95.333 -18.833 163 -56.5 203
s-95.167 60 -172.5 60c-56.667 0 -106.834 -13.667 -150.501 -41s-78.5 -64.666 -104.5 -111.999v-635l163 -28v-126h-523zM981.002 1560v-26l-246 -237h-119l-248 238v25h161l147 -148l145 148h160z" />
    <glyph glyph-name="napostrophe" unicode="&#x149;" horiz-adv-x="1343" 
d="M74 0l0.00195312 125.999l163 28v773l-163 28v127h339l14 -161c36 57.333 81.167 101.833 135.5 133.5s116.166 47.5 185.499 47.5c116.667 0 207 -34.167 271 -102.5s96 -173.833 96 -316.5v-529l163 -28v-126h-523v126l163 28v525c0 95.333 -18.833 163 -56.5 203
s-95.167 60 -172.5 60c-56.667 0 -106.834 -13.667 -150.501 -41s-78.5 -64.666 -104.5 -111.999v-635l163 -28v-126h-523zM154.002 1180l-86 74.001c24 33.333 41.667 66.666 53 99.999s17 72 17 116v90h180v-87c0 -60.667 -13.167 -115.167 -39.5 -163.5
s-67.833 -91.5 -124.5 -129.5z" />
    <glyph glyph-name="Eng" unicode="&#x14a;" horiz-adv-x="1559" 
d="M1007 -437c-20.667 0 -39.6699 1.49902 -57.0029 4.49902s-35.666 7.5 -54.999 13.5l14 150c8.66699 -3.33301 24.334 -6.33301 47.001 -9s39.667 -4 51 -4c40.667 0 72.334 17.167 95.001 51.5s34 81.5 34 141.5v89l-700 1112l-6 -2v-956l163 -28v-126h-523v126l163 28
v1147l-163 28v127h360l700 -1112l6 2v955l-163 28v127h523v-127l-163 -28v-1390c0 -111.333 -28.667 -197.166 -86 -257.499s-137.333 -90.5 -240 -90.5z" />
    <glyph glyph-name="eng" unicode="&#x14b;" horiz-adv-x="1263" 
d="M797 -437c-21.333 0 -40.833 1.49805 -58.5 4.49805s-35.834 7.5 -54.501 13.5l14 160c8.66699 -3.33301 24.334 -6.16602 47.001 -8.49902s40 -3.5 52 -3.5c40.667 0 72.334 15.667 95.001 47s34 76.333 34 135v768c0 95.333 -19 163 -57 203s-96 60 -174 60
c-56.667 0 -105.334 -10.833 -146.001 -32.5s-73.667 -52.167 -99 -91.5v-664l163 -28v-126h-523v126l163 28v773l-163 28v127h339l13 -149c36 53.333 80.667 94.833 134 124.5s113.333 44.5 180 44.5c116 0 206.167 -34.167 270.5 -102.5s96.5 -173.833 96.5 -316.5v-772
c0 -111.333 -28.833 -197.166 -86.5 -257.499s-137.5 -90.5 -239.5 -90.5z" />
    <glyph glyph-name="Omacron" unicode="&#x14c;" horiz-adv-x="1351" 
d="M675 -21c-94 0 -178.333 18 -253 54s-138.167 86.833 -190.5 152.5s-92.333 143.5 -120 233.5s-41.5 189.333 -41.5 298v21c0 108 13.833 207.167 41.5 297.5s67.667 168.5 120 234.5s115.833 117 190.5 153s159 54 253 54c99.333 0 186.666 -18 261.999 -54
s138.5 -87 189.5 -153s89.5 -144.167 115.5 -234.5s39 -189.5 39 -297.5v-21c0 -108.667 -13 -208 -39 -298s-64.5 -167.833 -115.5 -233.5s-114.167 -116.5 -189.5 -152.5s-162.666 -54 -261.999 -54zM675 143c96.667 0 174.833 24 234.5 72s103.5 115.167 131.5 201.5
s42 186.5 42 300.5v23c0 113.333 -14.167 212.833 -42.5 298.5s-72.5 152.667 -132.5 201s-137.667 72.5 -233 72.5c-87.333 0 -161.333 -24.333 -222 -73s-106.667 -115.834 -138 -201.501s-47 -184.834 -47 -297.501v-23c0 -113.333 15.667 -213.166 47 -299.499
s77.333 -153.666 138 -201.999s134.667 -72.5 222 -72.5zM314.999 1644v146h721v-146h-721z" />
    <glyph glyph-name="omacron" unicode="&#x14d;" horiz-adv-x="1124" 
d="M563 -21c-100 0 -186.166 23.5 -258.499 70.5s-128.166 112 -167.499 195s-59 177.833 -59 284.5v22c0 106.667 19.667 201.5 59 284.5s95.166 148.167 167.499 195.5s157.833 71 256.5 71c100 0 186.167 -23.667 258.5 -71s128.166 -112.333 167.499 -195
s59 -177.667 59 -285v-22c0 -107.333 -19.667 -202.5 -59 -285.5s-95 -147.833 -167 -194.5s-157.667 -70 -257 -70zM563.001 133c62.667 0 115.169 17.167 157.502 51.5s74.333 81.333 96 141s32.5 127.5 32.5 203.5v22c0 76 -10.833 143.833 -32.5 203.5
s-53.834 106.667 -96.501 141s-95.667 51.5 -159 51.5c-62.667 0 -115.334 -17.167 -158.001 -51.5s-74.667 -81.333 -96 -141s-32 -127.5 -32 -203.5v-22c0 -76 10.667 -143.833 32 -203.5s53.5 -106.667 96.5 -141s96.167 -51.5 159.5 -51.5zM201.003 1350v146h721v-146
h-721z" />
    <glyph glyph-name="Obreve" unicode="&#x14e;" horiz-adv-x="1351" 
d="M675 -21c-94 0 -178.333 18 -253 54s-138.167 86.833 -190.5 152.5s-92.333 143.5 -120 233.5s-41.5 189.333 -41.5 298v21c0 108 13.833 207.167 41.5 297.5s67.667 168.5 120 234.5s115.833 117 190.5 153s159 54 253 54c99.333 0 186.666 -18 261.999 -54
s138.5 -87 189.5 -153s89.5 -144.167 115.5 -234.5s39 -189.5 39 -297.5v-21c0 -108.667 -13 -208 -39 -298s-64.5 -167.833 -115.5 -233.5s-114.167 -116.5 -189.5 -152.5s-162.666 -54 -261.999 -54zM675 143c96.667 0 174.833 24 234.5 72s103.5 115.167 131.5 201.5
s42 186.5 42 300.5v23c0 113.333 -14.167 212.833 -42.5 298.5s-72.5 152.667 -132.5 201s-137.667 72.5 -233 72.5c-87.333 0 -161.333 -24.333 -222 -73s-106.667 -115.834 -138 -201.501s-47 -184.834 -47 -297.501v-23c0 -113.333 15.667 -213.166 47 -299.499
s77.333 -153.666 138 -201.999s134.667 -72.5 222 -72.5zM675.999 1566c-96.667 0 -172.668 26.167 -228.001 78.5s-83 120.166 -83 203.499l2 6h150c0 -48 12.833 -87 38.5 -117s65.834 -45 120.501 -45c53.333 0 93 15 119 45s39 69 39 117h151l2 -6
c-0.666992 -83.333 -28.5 -151.166 -83.5 -203.499s-130.833 -78.5 -227.5 -78.5z" />
    <glyph glyph-name="obreve" unicode="&#x14f;" horiz-adv-x="1124" 
d="M563 -21c-100 0 -186.166 23.5 -258.499 70.5s-128.166 112 -167.499 195s-59 177.833 -59 284.5v22c0 106.667 19.667 201.5 59 284.5s95.166 148.167 167.499 195.5s157.833 71 256.5 71c100 0 186.167 -23.667 258.5 -71s128.166 -112.333 167.499 -195
s59 -177.667 59 -285v-22c0 -107.333 -19.667 -202.5 -59 -285.5s-95 -147.833 -167 -194.5s-157.667 -70 -257 -70zM563.001 133c62.667 0 115.169 17.167 157.502 51.5s74.333 81.333 96 141s32.5 127.5 32.5 203.5v22c0 76 -10.833 143.833 -32.5 203.5
s-53.834 106.667 -96.501 141s-95.667 51.5 -159 51.5c-62.667 0 -115.334 -17.167 -158.001 -51.5s-74.667 -81.333 -96 -141s-32 -127.5 -32 -203.5v-22c0 -76 10.667 -143.833 32 -203.5s53.5 -106.667 96.5 -141s96.167 -51.5 159.5 -51.5zM562.003 1272
c-96.667 0 -172.668 26.167 -228.001 78.5s-83 120.166 -83 203.499l2 6h150c0 -48 12.833 -87 38.5 -117s65.834 -45 120.501 -45c53.333 0 93 15 119 45s39 69 39 117h151l2 -6c-0.666992 -83.333 -28.5 -151.166 -83.5 -203.499s-130.833 -78.5 -227.5 -78.5z" />
    <glyph glyph-name="Ohungarumlaut" unicode="&#x150;" horiz-adv-x="1351" 
d="M675 -21c-94 0 -178.333 18 -253 54s-138.167 86.833 -190.5 152.5s-92.333 143.5 -120 233.5s-41.5 189.333 -41.5 298v21c0 108 13.833 207.167 41.5 297.5s67.667 168.5 120 234.5s115.833 117 190.5 153s159 54 253 54c99.333 0 186.666 -18 261.999 -54
s138.5 -87 189.5 -153s89.5 -144.167 115.5 -234.5s39 -189.5 39 -297.5v-21c0 -108.667 -13 -208 -39 -298s-64.5 -167.833 -115.5 -233.5s-114.167 -116.5 -189.5 -152.5s-162.666 -54 -261.999 -54zM675 143c96.667 0 174.833 24 234.5 72s103.5 115.167 131.5 201.5
s42 186.5 42 300.5v23c0 113.333 -14.167 212.833 -42.5 298.5s-72.5 152.667 -132.5 201s-137.667 72.5 -233 72.5c-87.333 0 -161.333 -24.333 -222 -73s-106.667 -115.834 -138 -201.501s-47 -184.834 -47 -297.501v-23c0 -113.333 15.667 -213.166 47 -299.499
s77.333 -153.666 138 -201.999s134.667 -72.5 222 -72.5zM666.999 1582l-2 5l241 267h228l3 -6l-299 -266h-171zM402.999 1582h-7l184 272h211l2 -5l-240 -267h-150z" />
    <glyph glyph-name="ohungarumlaut" unicode="&#x151;" horiz-adv-x="1124" 
d="M563 -21c-100 0 -186.166 23.5 -258.499 70.5s-128.166 112 -167.499 195s-59 177.833 -59 284.5v22c0 106.667 19.667 201.5 59 284.5s95.166 148.167 167.499 195.5s157.833 71 256.5 71c100 0 186.167 -23.667 258.5 -71s128.166 -112.333 167.499 -195
s59 -177.667 59 -285v-22c0 -107.333 -19.667 -202.5 -59 -285.5s-95 -147.833 -167 -194.5s-157.667 -70 -257 -70zM563.001 133c62.667 0 115.169 17.167 157.502 51.5s74.333 81.333 96 141s32.5 127.5 32.5 203.5v22c0 76 -10.833 143.833 -32.5 203.5
s-53.834 106.667 -96.501 141s-95.667 51.5 -159 51.5c-62.667 0 -115.334 -17.167 -158.001 -51.5s-74.667 -81.333 -96 -141s-32 -127.5 -32 -203.5v-22c0 -76 10.667 -143.833 32 -203.5s53.5 -106.667 96.5 -141s96.167 -51.5 159.5 -51.5zM553.003 1288l-2 5l241 267
h228l3 -6l-299 -266h-171zM289.003 1288h-7l184 272h211l2 -5l-240 -267h-150z" />
    <glyph glyph-name="OE" unicode="&#x152;" horiz-adv-x="1987" 
d="M715 -21c-102.667 0 -194 17.999 -274 53.999s-147.667 86.833 -203 152.5s-97.166 143.5 -125.499 233.5s-42.5 189.333 -42.5 298v21c0 108 14.167 207.167 42.5 297.5s70 168.5 125 234.5s122.5 117 202.5 153s171.667 54 275 54c53.333 0 110.333 -5.16699 171 -15.5
s124.667 -25.166 192 -44.499v-206c-54.667 32 -113.334 56.833 -176.001 74.5s-125 26.5 -187 26.5c-99.333 0 -182.166 -24.333 -248.499 -73s-116 -115.834 -149 -201.501s-49.5 -184.834 -49.5 -297.501v-23c0 -113.333 16.5 -213.166 49.5 -299.499
s82.667 -153.666 149 -201.999s149.166 -72.5 248.499 -72.5c62.667 0 125.167 8.5 187.5 25.5s120.833 40.833 175.5 71.5v-202c-67.333 -18.667 -131.333 -33.167 -192 -43.5s-117.667 -15.5 -171 -15.5zM850 -0.000976562l55 154v1147l-55 155h1010v-350h-169l-16 195
h-573v-471h557v-155h-557v-521h585l16 195h168v-349h-1021z" />
    <glyph glyph-name="oe" unicode="&#x153;" horiz-adv-x="1845" 
d="M562 -21c-99.333 0 -185.333 23.501 -258 70.501s-128.5 112 -167.5 195s-58.5 177.833 -58.5 284.5v22c0 106.667 19.5 201.5 58.5 284.5s94.667 148.167 167 195.5s157.833 71 256.5 71c86.667 0 163.5 -18.333 230.5 -55s121.833 -88 164.5 -154
c42.667 65.333 96.5 116.5 161.5 153.5s133.833 55.5 206.5 55.5c97.333 0 178.833 -20 244.5 -60s115.167 -96.167 148.5 -168.5s50 -157.5 50 -255.5v-123h-702l-3 -5c1.33301 -69.333 13.5 -130.833 36.5 -184.5s56 -95.834 99 -126.501s95.167 -46 156.5 -46
c44.667 0 85.5 4.33301 122.5 13s70.833 21 101.5 37s58 35 82 57l77 -128c-39.333 -38 -90.5 -69.667 -153.5 -95s-139.5 -38 -229.5 -38c-58.667 0 -113 8 -163 24s-94.833 39.167 -134.5 69.5s-73.834 66.833 -102.501 109.5
c-42.667 -64.667 -97.167 -114.667 -163.5 -150s-142.166 -53 -227.499 -53zM562 133.001c62.667 0 115.331 17.167 157.998 51.5s74.834 81.333 96.501 141s32.5 127.5 32.5 203.5v22c0 76 -11 143.833 -33 203.5s-54.333 106.667 -97 141s-95.667 51.5 -159 51.5
c-62.667 0 -115.167 -17.167 -157.5 -51.5s-74.166 -81.333 -95.499 -141s-32 -127.5 -32 -203.5v-22c0 -76 10.667 -143.833 32 -203.5s53.333 -106.667 96 -141s95.667 -51.5 159 -51.5zM1070 649.001h498.998v26c0 52 -9.16699 98.5 -27.5 139.5
s-45.666 73.333 -81.999 97s-81.833 35.5 -136.5 35.5c-44 0 -84 -12.833 -120 -38.5s-65.667 -60.5 -89 -104.5s-38.666 -94 -45.999 -150z" />
    <glyph glyph-name="Racute" unicode="&#x154;" horiz-adv-x="1385" 
d="M81 0v126l163 28v1147l-163 28v126h649c106 0 195.5 -15.833 268.5 -47.5s128.5 -77.5 166.5 -137.5s57 -133.333 57 -220c0 -85.333 -18.5 -157 -55.5 -215s-89.5 -101.833 -157.5 -131.5s-148.667 -45.5 -242 -47.5l-326 -6v-496l163 -28v-126h-523zM1042 0l-324 727
l197 2l269 -582l101 -18v-129h-243zM441 805l269 -0.000976562c110 0 190 21 240 63s75 103.333 75 184c0 76.667 -24 137.334 -72 182.001s-122.333 67 -223 67h-289v-496zM572 1582l184 272h230l2 -6l-269 -266h-138h-9z" />
    <glyph glyph-name="racute" unicode="&#x155;" horiz-adv-x="854" 
d="M72 0l-0.00195312 126.001l163 28v773l-163 28v127h339l17 -138l2 -19c30.667 55.333 68.5 98.666 113.5 129.999s96.5 47 154.5 47c20.667 0 41.834 -1.83301 63.501 -5.5s37.167 -7.16699 46.5 -10.5l-26 -183l-137 8c-52 3.33301 -95.667 -8.5 -131 -35.5
s-62.666 -63.167 -81.999 -108.5v-613l163 -28v-126h-523zM329.998 1288l184 272h230l2 -6l-269 -266h-138h-9z" />
    <glyph glyph-name="uni0156" unicode="&#x156;" horiz-adv-x="1385" 
d="M81 0v126l163 28v1147l-163 28v126h649c106 0 195.5 -15.833 268.5 -47.5s128.5 -77.5 166.5 -137.5s57 -133.333 57 -220c0 -85.333 -18.5 -157 -55.5 -215s-89.5 -101.833 -157.5 -131.5s-148.667 -45.5 -242 -47.5l-326 -6v-496l163 -28v-126h-523zM1042 0l-324 727
l197 2l269 -582l101 -18v-129h-243zM441 805l269 -0.000976562c110 0 190 21 240 63s75 103.333 75 184c0 76.667 -24 137.334 -72 182.001s-122.333 67 -223 67h-289v-496zM634 -537.001l-86 74.001c24 33.333 41.667 66.666 53 99.999s17 72 17 116v90h180v-87
c0 -60.667 -13.167 -115.167 -39.5 -163.5s-67.833 -91.5 -124.5 -129.5z" />
    <glyph glyph-name="uni0157" unicode="&#x157;" horiz-adv-x="854" 
d="M72 0l-0.00195312 126.001l163 28v773l-163 28v127h339l17 -138l2 -19c30.667 55.333 68.5 98.666 113.5 129.999s96.5 47 154.5 47c20.667 0 41.834 -1.83301 63.501 -5.5s37.167 -7.16699 46.5 -10.5l-26 -183l-137 8c-52 3.33301 -95.667 -8.5 -131 -35.5
s-62.666 -63.167 -81.999 -108.5v-613l163 -28v-126h-523zM281.998 -536.999l-86 74.001c24 33.333 41.667 66.666 53 99.999s17 72 17 116v90h180v-87c0 -60.667 -13.167 -115.167 -39.5 -163.5s-67.833 -91.5 -124.5 -129.5z" />
    <glyph glyph-name="Rcaron" unicode="&#x158;" horiz-adv-x="1385" 
d="M81 0v126l163 28v1147l-163 28v126h649c106 0 195.5 -15.833 268.5 -47.5s128.5 -77.5 166.5 -137.5s57 -133.333 57 -220c0 -85.333 -18.5 -157 -55.5 -215s-89.5 -101.833 -157.5 -131.5s-148.667 -45.5 -242 -47.5l-326 -6v-496l163 -28v-126h-523zM1042 0l-324 727
l197 2l269 -582l101 -18v-129h-243zM441 805l269 -0.000976562c110 0 190 21 240 63s75 103.333 75 184c0 76.667 -24 137.334 -72 182.001s-122.333 67 -223 67h-289v-496zM999 1854v-26l-246 -237h-119l-248 238v25h161l147 -148l145 148h160z" />
    <glyph glyph-name="rcaron" unicode="&#x159;" horiz-adv-x="854" 
d="M72 0l-0.00195312 126.001l163 28v773l-163 28v127h339l17 -138l2 -19c30.667 55.333 68.5 98.666 113.5 129.999s96.5 47 154.5 47c20.667 0 41.834 -1.83301 63.501 -5.5s37.167 -7.16699 46.5 -10.5l-26 -183l-137 8c-52 3.33301 -95.667 -8.5 -131 -35.5
s-62.666 -63.167 -81.999 -108.5v-613l163 -28v-126h-523zM756.998 1560v-26l-246 -237h-119l-248 238v25h161l147 -148l145 148h160z" />
    <glyph glyph-name="Sacute" unicode="&#x15a;" horiz-adv-x="1206" 
d="M606 -21c-88.667 0 -174.002 13.001 -256.002 39.001s-160.333 66 -235 120v311h153l33 -229c43.333 -26.667 90.333 -47.334 141 -62.001s105.334 -22 164.001 -22c66.667 0 123.167 10.167 169.5 30.5s81.833 48.5 106.5 84.5s37 78 37 126
c0 44.667 -10.667 84 -32 118s-56.5 63.833 -105.5 89.5s-115.833 48.167 -200.5 67.5c-100 23.333 -184.5 54.5 -253.5 93.5s-121.333 86.333 -157 142s-53.5 119.5 -53.5 191.5c0 76 20.167 144 60.5 204s96.5 107.333 168.5 142s156 52 252 52
c102 0 192.167 -15.5 270.5 -46.5s142.833 -68.5 193.5 -112.5v-291h-153l-33 208c-30 24 -67.333 44 -112 60s-100 24 -166 24c-56 0 -105.333 -9.83301 -148 -29.5s-76 -47.167 -100 -82.5s-36 -77 -36 -125c0 -42 10.833 -78.667 32.5 -110s57 -58.833 106 -82.5
s114.5 -45.834 196.5 -66.501c153.333 -38 269.5 -94.167 348.5 -168.5s118.5 -166.166 118.5 -275.499c0 -78 -21 -147.167 -63 -207.5s-101.167 -107.5 -177.5 -141.5s-166.166 -51 -269.499 -51zM481.998 1582l184 272h230l2 -6l-269 -266h-138h-9z" />
    <glyph glyph-name="sacute" unicode="&#x15b;" horiz-adv-x="1022" 
d="M512 -21c-72.667 0 -140.669 7.33203 -204.002 21.999s-130.666 37.334 -201.999 68.001l-2 257h149l37 -155c37.333 -15.333 73.5 -26.5 108.5 -33.5s72.833 -10.5 113.5 -10.5c80 0 137.333 15.333 172 46s52 68.667 52 114c0 42.667 -17.5 78.834 -52.5 108.501
s-98.5 54.834 -190.5 75.501c-130.667 30 -226.834 70.167 -288.501 120.5s-92.5 117.5 -92.5 201.5c0 58.667 17 111.167 51 157.5s81.333 83.166 142 110.499s131.334 41 212.001 41c82 0 152.167 -9.33301 210.5 -28s109.166 -43.667 152.499 -75l10 -247h-148l-32 144
c-23.333 17.333 -51 30.666 -83 39.999s-68.667 14 -110 14c-61.333 0 -111.166 -14.333 -149.499 -43s-57.5 -64.667 -57.5 -108c0 -25.333 5.5 -47.333 16.5 -66s32.167 -35.5 63.5 -50.5s77.333 -29.833 138 -44.5c150.667 -35.333 255.834 -80.333 315.501 -135
s89.5 -122 89.5 -202c0 -91.333 -33.833 -167.833 -101.5 -229.5s-174.167 -92.5 -319.5 -92.5zM389.998 1288l184 272h230l2 -6l-269 -266h-138h-9z" />
    <glyph glyph-name="Scircumflex" unicode="&#x15c;" horiz-adv-x="1206" 
d="M606 -21c-88.667 0 -174.002 13.001 -256.002 39.001s-160.333 66 -235 120v311h153l33 -229c43.333 -26.667 90.333 -47.334 141 -62.001s105.334 -22 164.001 -22c66.667 0 123.167 10.167 169.5 30.5s81.833 48.5 106.5 84.5s37 78 37 126
c0 44.667 -10.667 84 -32 118s-56.5 63.833 -105.5 89.5s-115.833 48.167 -200.5 67.5c-100 23.333 -184.5 54.5 -253.5 93.5s-121.333 86.333 -157 142s-53.5 119.5 -53.5 191.5c0 76 20.167 144 60.5 204s96.5 107.333 168.5 142s156 52 252 52
c102 0 192.167 -15.5 270.5 -46.5s142.833 -68.5 193.5 -112.5v-291h-153l-33 208c-30 24 -67.333 44 -112 60s-100 24 -166 24c-56 0 -105.333 -9.83301 -148 -29.5s-76 -47.167 -100 -82.5s-36 -77 -36 -125c0 -42 10.833 -78.667 32.5 -110s57 -58.833 106 -82.5
s114.5 -45.834 196.5 -66.501c153.333 -38 269.5 -94.167 348.5 -168.5s118.5 -166.166 118.5 -275.499c0 -78 -21 -147.167 -63 -207.5s-101.167 -107.5 -177.5 -141.5s-166.166 -51 -269.499 -51zM295.998 1591v26l246 237h119l248 -238v-25h-161l-147 148l-145 -148h-160
z" />
    <glyph glyph-name="scircumflex" unicode="&#x15d;" horiz-adv-x="1022" 
d="M512 -21c-72.667 0 -140.669 7.33203 -204.002 21.999s-130.666 37.334 -201.999 68.001l-2 257h149l37 -155c37.333 -15.333 73.5 -26.5 108.5 -33.5s72.833 -10.5 113.5 -10.5c80 0 137.333 15.333 172 46s52 68.667 52 114c0 42.667 -17.5 78.834 -52.5 108.501
s-98.5 54.834 -190.5 75.501c-130.667 30 -226.834 70.167 -288.501 120.5s-92.5 117.5 -92.5 201.5c0 58.667 17 111.167 51 157.5s81.333 83.166 142 110.499s131.334 41 212.001 41c82 0 152.167 -9.33301 210.5 -28s109.166 -43.667 152.499 -75l10 -247h-148l-32 144
c-23.333 17.333 -51 30.666 -83 39.999s-68.667 14 -110 14c-61.333 0 -111.166 -14.333 -149.499 -43s-57.5 -64.667 -57.5 -108c0 -25.333 5.5 -47.333 16.5 -66s32.167 -35.5 63.5 -50.5s77.333 -29.833 138 -44.5c150.667 -35.333 255.834 -80.333 315.501 -135
s89.5 -122 89.5 -202c0 -91.333 -33.833 -167.833 -101.5 -229.5s-174.167 -92.5 -319.5 -92.5zM203.998 1297v26l246 237h119l248 -238v-25h-161l-147 148l-145 -148h-160z" />
    <glyph glyph-name="Scedilla" unicode="&#x15e;" horiz-adv-x="1206" 
d="M606 -21c-88.667 0 -174.002 13.001 -256.002 39.001s-160.333 66 -235 120v311h153l33 -229c43.333 -26.667 90.333 -47.334 141 -62.001s105.334 -22 164.001 -22c66.667 0 123.167 10.167 169.5 30.5s81.833 48.5 106.5 84.5s37 78 37 126
c0 44.667 -10.667 84 -32 118s-56.5 63.833 -105.5 89.5s-115.833 48.167 -200.5 67.5c-100 23.333 -184.5 54.5 -253.5 93.5s-121.333 86.333 -157 142s-53.5 119.5 -53.5 191.5c0 76 20.167 144 60.5 204s96.5 107.333 168.5 142s156 52 252 52
c102 0 192.167 -15.5 270.5 -46.5s142.833 -68.5 193.5 -112.5v-291h-153l-33 208c-30 24 -67.333 44 -112 60s-100 24 -166 24c-56 0 -105.333 -9.83301 -148 -29.5s-76 -47.167 -100 -82.5s-36 -77 -36 -125c0 -42 10.833 -78.667 32.5 -110s57 -58.833 106 -82.5
s114.5 -45.834 196.5 -66.501c153.333 -38 269.5 -94.167 348.5 -168.5s118.5 -166.166 118.5 -275.499c0 -78 -21 -147.167 -63 -207.5s-101.167 -107.5 -177.5 -141.5s-166.166 -51 -269.499 -51zM507.998 -434.999l-7 109.002c48 0 86.5 8 115.5 24s43.5 39.667 43.5 71
s-12 53 -36 65s-65.333 20.333 -124 25l40 173h141l-20 -90c44 -7.33301 80.333 -24.333 109 -51s43 -66.334 43 -119.001c0 -62.667 -26.333 -112.834 -79 -150.501s-128 -56.5 -226 -56.5z" />
    <glyph glyph-name="scedilla" unicode="&#x15f;" horiz-adv-x="1022" 
d="M512 -21c-72.667 0 -140.669 7.33203 -204.002 21.999s-130.666 37.334 -201.999 68.001l-2 257h149l37 -155c37.333 -15.333 73.5 -26.5 108.5 -33.5s72.833 -10.5 113.5 -10.5c80 0 137.333 15.333 172 46s52 68.667 52 114c0 42.667 -17.5 78.834 -52.5 108.501
s-98.5 54.834 -190.5 75.501c-130.667 30 -226.834 70.167 -288.501 120.5s-92.5 117.5 -92.5 201.5c0 58.667 17 111.167 51 157.5s81.333 83.166 142 110.499s131.334 41 212.001 41c82 0 152.167 -9.33301 210.5 -28s109.166 -43.667 152.499 -75l10 -247h-148l-32 144
c-23.333 17.333 -51 30.666 -83 39.999s-68.667 14 -110 14c-61.333 0 -111.166 -14.333 -149.499 -43s-57.5 -64.667 -57.5 -108c0 -25.333 5.5 -47.333 16.5 -66s32.167 -35.5 63.5 -50.5s77.333 -29.833 138 -44.5c150.667 -35.333 255.834 -80.333 315.501 -135
s89.5 -122 89.5 -202c0 -91.333 -33.833 -167.833 -101.5 -229.5s-174.167 -92.5 -319.5 -92.5zM415.998 -435.001l-7 109.002c48 0 86.5 8 115.5 24s43.5 39.667 43.5 71s-12 53 -36 65s-65.333 20.333 -124 25l40 173h141l-20 -90c44 -7.33301 80.333 -24.333 109 -51
s43 -66.334 43 -119.001c0 -62.667 -26.333 -112.834 -79 -150.501s-128 -56.5 -226 -56.5z" />
    <glyph glyph-name="Scaron" unicode="&#x160;" horiz-adv-x="1206" 
d="M606 -21c-88.667 0 -174.002 13.001 -256.002 39.001s-160.333 66 -235 120v311h153l33 -229c43.333 -26.667 90.333 -47.334 141 -62.001s105.334 -22 164.001 -22c66.667 0 123.167 10.167 169.5 30.5s81.833 48.5 106.5 84.5s37 78 37 126
c0 44.667 -10.667 84 -32 118s-56.5 63.833 -105.5 89.5s-115.833 48.167 -200.5 67.5c-100 23.333 -184.5 54.5 -253.5 93.5s-121.333 86.333 -157 142s-53.5 119.5 -53.5 191.5c0 76 20.167 144 60.5 204s96.5 107.333 168.5 142s156 52 252 52
c102 0 192.167 -15.5 270.5 -46.5s142.833 -68.5 193.5 -112.5v-291h-153l-33 208c-30 24 -67.333 44 -112 60s-100 24 -166 24c-56 0 -105.333 -9.83301 -148 -29.5s-76 -47.167 -100 -82.5s-36 -77 -36 -125c0 -42 10.833 -78.667 32.5 -110s57 -58.833 106 -82.5
s114.5 -45.834 196.5 -66.501c153.333 -38 269.5 -94.167 348.5 -168.5s118.5 -166.166 118.5 -275.499c0 -78 -21 -147.167 -63 -207.5s-101.167 -107.5 -177.5 -141.5s-166.166 -51 -269.499 -51zM908.998 1854v-26l-246 -237h-119l-248 238v25h161l147 -148l145 148h160z
" />
    <glyph glyph-name="scaron" unicode="&#x161;" horiz-adv-x="1022" 
d="M512 -21c-72.667 0 -140.669 7.33203 -204.002 21.999s-130.666 37.334 -201.999 68.001l-2 257h149l37 -155c37.333 -15.333 73.5 -26.5 108.5 -33.5s72.833 -10.5 113.5 -10.5c80 0 137.333 15.333 172 46s52 68.667 52 114c0 42.667 -17.5 78.834 -52.5 108.501
s-98.5 54.834 -190.5 75.501c-130.667 30 -226.834 70.167 -288.501 120.5s-92.5 117.5 -92.5 201.5c0 58.667 17 111.167 51 157.5s81.333 83.166 142 110.499s131.334 41 212.001 41c82 0 152.167 -9.33301 210.5 -28s109.166 -43.667 152.499 -75l10 -247h-148l-32 144
c-23.333 17.333 -51 30.666 -83 39.999s-68.667 14 -110 14c-61.333 0 -111.166 -14.333 -149.499 -43s-57.5 -64.667 -57.5 -108c0 -25.333 5.5 -47.333 16.5 -66s32.167 -35.5 63.5 -50.5s77.333 -29.833 138 -44.5c150.667 -35.333 255.834 -80.333 315.501 -135
s89.5 -122 89.5 -202c0 -91.333 -33.833 -167.833 -101.5 -229.5s-174.167 -92.5 -319.5 -92.5zM816.998 1560v-26l-246 -237h-119l-248 238v25h161l147 -148l145 148h160z" />
    <glyph glyph-name="uni0162" unicode="&#x162;" horiz-adv-x="1406" 
d="M440 0v126l163 28v1153h-330l-29 -202h-148v351h1210v-351h-146l-30 202h-330v-1153l163 -28v-126h-523zM608 -435l-7 109.002c48 0 86.5 8 115.5 24s43.5 39.667 43.5 71s-12 53 -36 65s-65.333 20.333 -124 25l40 173h141l-20 -90c44 -7.33301 80.333 -24.333 109 -51
s43 -66.334 43 -119.001c0 -62.667 -26.333 -112.834 -79 -150.501s-128 -56.5 -226 -56.5z" />
    <glyph glyph-name="uni0163" unicode="&#x163;" horiz-adv-x="730" 
d="M456 -17c-80 0 -143.5 23.502 -190.5 70.502s-70.5 122.167 -70.5 225.5v657h-171v146h171v261h197v-261h235v-146h-235v-657c0 -52 10.333 -90.333 31 -115s48.334 -37 83.001 -37c23.333 0 49.333 2.16699 78 6.5s51 8.16602 67 11.499l27 -129
c-28.667 -8.66699 -63.834 -16.334 -105.501 -23.001s-80.5 -10 -116.5 -10zM317 -434.998l-7 109.002c48 0 86.5 8 115.5 24s43.5 39.667 43.5 71s-12 53 -36 65s-65.333 20.333 -124 25l40 173h141l-20 -90c44 -7.33301 80.333 -24.333 109 -51s43 -66.334 43 -119.001
c0 -62.667 -26.333 -112.834 -79 -150.501s-128 -56.5 -226 -56.5z" />
    <glyph glyph-name="Tcaron" unicode="&#x164;" horiz-adv-x="1406" 
d="M440 0v126l163 28v1153h-330l-29 -202h-148v351h1210v-351h-146l-30 202h-330v-1153l163 -28v-126h-523zM1009 1854v-26l-246 -237h-119l-248 238v25h161l147 -148l145 148h160z" />
    <glyph glyph-name="tcaron" unicode="&#x165;" horiz-adv-x="730" 
d="M456 -17c-80 0 -143.5 23.502 -190.5 70.502s-70.5 122.167 -70.5 225.5v657h-171v146h171v261h197v-261h235v-146h-235v-657c0 -52 10.333 -90.333 31 -115s48.334 -37 83.001 -37c23.333 0 49.333 2.16699 78 6.5s51 8.16602 67 11.499l27 -129
c-28.667 -8.66699 -63.834 -16.334 -105.501 -23.001s-80.5 -10 -116.5 -10zM577 1180l-86 74.001c24 33.333 41.667 66.666 53 99.999s17 72 17 116v90h180v-87c0 -60.667 -13.167 -115.167 -39.5 -163.5s-67.833 -91.5 -124.5 -129.5z" />
    <glyph glyph-name="Tbar" unicode="&#x166;" horiz-adv-x="1406" 
d="M440 0v126l163 28v1153h-330l-29 -202h-148v351h1210v-351h-146l-30 202h-330v-1153l163 -28v-126h-523zM401 651v155h603v-155h-603z" />
    <glyph glyph-name="tbar" unicode="&#x167;" horiz-adv-x="730" 
d="M456 -17c-80 0 -143.5 23.502 -190.5 70.502s-70.5 122.167 -70.5 225.5v657h-171v146h171v261h197v-261h235v-146h-235v-657c0 -52 10.333 -90.333 31 -115s48.334 -37 83.001 -37c23.333 0 49.333 2.16699 78 6.5s51 8.16602 67 11.499l27 -129
c-28.667 -8.66699 -63.834 -16.334 -105.501 -23.001s-80.5 -10 -116.5 -10zM23 589.002v155h603v-155h-603z" />
    <glyph glyph-name="Utilde" unicode="&#x168;" horiz-adv-x="1522" 
d="M755 -21c-100 0 -189.331 19.668 -267.998 59.001s-140.667 95.5 -186 168.5s-68 160.5 -68 262.5v832l-163 28v127h523v-127l-163 -28v-832c0 -72.667 13.833 -133.667 41.5 -183s66.167 -86.5 115.5 -111.5s106.333 -37.5 171 -37.5
c65.333 0 123.166 12.333 173.499 37s89.666 61.667 117.999 111s42.5 110.666 42.5 183.999v832l-163 28v127h523v-127l-163 -28v-832c0 -105.333 -22.167 -194.5 -66.5 -267.5s-106.5 -128.333 -186.5 -166s-173.667 -56.5 -281 -56.5zM521.002 1599l-106.999 22.001
c0 42.667 9.33301 81.667 28 117s43.667 63.833 75 85.5s66.333 32.5 105 32.5c30 0 62 -8.33301 96 -25l98.5 -50c31.667 -16.667 58.834 -25 81.501 -25c27.333 0 51 10.833 71 32.5s30 48.5 30 80.5l108 -28c0 -42.667 -9.33301 -81.334 -28 -116.001
s-43.834 -62.167 -75.501 -82.5s-66.834 -30.5 -105.501 -30.5c-32.667 0 -66 8.16699 -100 24.5s-66.167 32.833 -96.5 49.5s-56.833 25 -79.5 25c-28 0 -51.833 -10.833 -71.5 -32.5s-29.5 -48.167 -29.5 -79.5z" />
    <glyph glyph-name="utilde" unicode="&#x169;" horiz-adv-x="1245" 
d="M550 -21c-117.333 0 -209 37.667 -275 113s-99 192.666 -99 351.999v483l-124 28v127h124h197v-640c0 -115.333 17 -194.666 51 -237.999s87 -65 159 -65c70 0 127.833 14.167 173.5 42.5s80.167 68.5 103.5 120.5v625l-145 28v127h145h197v-928l124 -28v-126h-301
l-13 160c-34 -58 -77.833 -102.667 -131.5 -134s-115.5 -47 -185.5 -47zM366 1305l-106.999 22.001c0 42.667 9.33301 81.667 28 117s43.667 63.833 75 85.5s66.333 32.5 105 32.5c30 0 62 -8.33301 96 -25l98.5 -50c31.667 -16.667 58.834 -25 81.501 -25
c27.333 0 51 10.833 71 32.5s30 48.5 30 80.5l108 -28c0 -42.667 -9.33301 -81.334 -28 -116.001s-43.834 -62.167 -75.501 -82.5s-66.834 -30.5 -105.501 -30.5c-32.667 0 -66 8.16699 -100 24.5s-66.167 32.833 -96.5 49.5s-56.833 25 -79.5 25
c-28 0 -51.833 -10.833 -71.5 -32.5s-29.5 -48.167 -29.5 -79.5z" />
    <glyph glyph-name="Umacron" unicode="&#x16a;" horiz-adv-x="1522" 
d="M755 -21c-100 0 -189.331 19.668 -267.998 59.001s-140.667 95.5 -186 168.5s-68 160.5 -68 262.5v832l-163 28v127h523v-127l-163 -28v-832c0 -72.667 13.833 -133.667 41.5 -183s66.167 -86.5 115.5 -111.5s106.333 -37.5 171 -37.5
c65.333 0 123.166 12.333 173.499 37s89.666 61.667 117.999 111s42.5 110.666 42.5 183.999v832l-163 28v127h523v-127l-163 -28v-832c0 -105.333 -22.167 -194.5 -66.5 -267.5s-106.5 -128.333 -186.5 -166s-173.667 -56.5 -281 -56.5zM400.002 1644v146h721v-146h-721z
" />
    <glyph glyph-name="umacron" unicode="&#x16b;" horiz-adv-x="1245" 
d="M550 -21c-117.333 0 -209 37.667 -275 113s-99 192.666 -99 351.999v483l-124 28v127h124h197v-640c0 -115.333 17 -194.666 51 -237.999s87 -65 159 -65c70 0 127.833 14.167 173.5 42.5s80.167 68.5 103.5 120.5v625l-145 28v127h145h197v-928l124 -28v-126h-301
l-13 160c-34 -58 -77.833 -102.667 -131.5 -134s-115.5 -47 -185.5 -47zM245 1350v146h721v-146h-721z" />
    <glyph glyph-name="Ubreve" unicode="&#x16c;" horiz-adv-x="1522" 
d="M755 -21c-100 0 -189.331 19.668 -267.998 59.001s-140.667 95.5 -186 168.5s-68 160.5 -68 262.5v832l-163 28v127h523v-127l-163 -28v-832c0 -72.667 13.833 -133.667 41.5 -183s66.167 -86.5 115.5 -111.5s106.333 -37.5 171 -37.5
c65.333 0 123.166 12.333 173.499 37s89.666 61.667 117.999 111s42.5 110.666 42.5 183.999v832l-163 28v127h523v-127l-163 -28v-832c0 -105.333 -22.167 -194.5 -66.5 -267.5s-106.5 -128.333 -186.5 -166s-173.667 -56.5 -281 -56.5zM761.002 1566
c-96.667 0 -172.668 26.167 -228.001 78.5s-83 120.166 -83 203.499l2 6h150c0 -48 12.833 -87 38.5 -117s65.834 -45 120.501 -45c53.333 0 93 15 119 45s39 69 39 117h151l2 -6c-0.666992 -83.333 -28.5 -151.166 -83.5 -203.499s-130.833 -78.5 -227.5 -78.5z" />
    <glyph glyph-name="ubreve" unicode="&#x16d;" horiz-adv-x="1245" 
d="M550 -21c-117.333 0 -209 37.667 -275 113s-99 192.666 -99 351.999v483l-124 28v127h124h197v-640c0 -115.333 17 -194.666 51 -237.999s87 -65 159 -65c70 0 127.833 14.167 173.5 42.5s80.167 68.5 103.5 120.5v625l-145 28v127h145h197v-928l124 -28v-126h-301
l-13 160c-34 -58 -77.833 -102.667 -131.5 -134s-115.5 -47 -185.5 -47zM606 1272c-96.667 0 -172.668 26.167 -228.001 78.5s-83 120.166 -83 203.499l2 6h150c0 -48 12.833 -87 38.5 -117s65.834 -45 120.501 -45c53.333 0 93 15 119 45s39 69 39 117h151l2 -6
c-0.666992 -83.333 -28.5 -151.166 -83.5 -203.499s-130.833 -78.5 -227.5 -78.5z" />
    <glyph glyph-name="Uring" unicode="&#x16e;" horiz-adv-x="1522" 
d="M755 -21c-100 0 -189.331 19.668 -267.998 59.001s-140.667 95.5 -186 168.5s-68 160.5 -68 262.5v832l-163 28v127h523v-127l-163 -28v-832c0 -72.667 13.833 -133.667 41.5 -183s66.167 -86.5 115.5 -111.5s106.333 -37.5 171 -37.5
c65.333 0 123.166 12.333 173.499 37s89.666 61.667 117.999 111s42.5 110.666 42.5 183.999v832l-163 28v127h523v-127l-163 -28v-832c0 -105.333 -22.167 -194.5 -66.5 -267.5s-106.5 -128.333 -186.5 -166s-173.667 -56.5 -281 -56.5zM762.002 1519
c-58 0 -107.167 18.001 -147.5 54.001s-60.5 82.667 -60.5 140c0 56 20.167 103 60.5 141s89.5 57 147.5 57c56.667 0 105 -18.833 145 -56.5s60 -84.834 60 -141.501c0 -57.333 -20 -104 -60 -140s-88.333 -54 -145 -54zM762.002 1609c28 0 51.998 9.83301 71.998 29.5
s30 44.5 30 74.5s-10 55.333 -30 76s-44 31 -72 31c-29.333 0 -54.166 -10.333 -74.499 -31s-30.5 -46 -30.5 -76c0 -28.667 10.333 -53.167 31 -73.5s45.334 -30.5 74.001 -30.5z" />
    <glyph glyph-name="uring" unicode="&#x16f;" horiz-adv-x="1245" 
d="M550 -21c-117.333 0 -209 37.667 -275 113s-99 192.666 -99 351.999v483l-124 28v127h124h197v-640c0 -115.333 17 -194.666 51 -237.999s87 -65 159 -65c70 0 127.833 14.167 173.5 42.5s80.167 68.5 103.5 120.5v625l-145 28v127h145h197v-928l124 -28v-126h-301
l-13 160c-34 -58 -77.833 -102.667 -131.5 -134s-115.5 -47 -185.5 -47zM607 1225c-58 0 -107.167 18.001 -147.5 54.001s-60.5 82.667 -60.5 140c0 56 20.167 103 60.5 141s89.5 57 147.5 57c56.667 0 105 -18.833 145 -56.5s60 -84.834 60 -141.501
c0 -57.333 -20 -104 -60 -140s-88.333 -54 -145 -54zM607 1315c28 0 51.998 9.83301 71.998 29.5s30 44.5 30 74.5s-10 55.333 -30 76s-44 31 -72 31c-29.333 0 -54.166 -10.333 -74.499 -31s-30.5 -46 -30.5 -76c0 -28.667 10.333 -53.167 31 -73.5
s45.334 -30.5 74.001 -30.5z" />
    <glyph glyph-name="Uhungarumlaut" unicode="&#x170;" horiz-adv-x="1522" 
d="M755 -21c-100 0 -189.331 19.668 -267.998 59.001s-140.667 95.5 -186 168.5s-68 160.5 -68 262.5v832l-163 28v127h523v-127l-163 -28v-832c0 -72.667 13.833 -133.667 41.5 -183s66.167 -86.5 115.5 -111.5s106.333 -37.5 171 -37.5
c65.333 0 123.166 12.333 173.499 37s89.666 61.667 117.999 111s42.5 110.666 42.5 183.999v832l-163 28v127h523v-127l-163 -28v-832c0 -105.333 -22.167 -194.5 -66.5 -267.5s-106.5 -128.333 -186.5 -166s-173.667 -56.5 -281 -56.5zM752.002 1582l-2 5l241 267h228
l3 -6l-299 -266h-171zM488.002 1582h-7l184 272h211l2 -5l-240 -267h-150z" />
    <glyph glyph-name="uhungarumlaut" unicode="&#x171;" horiz-adv-x="1245" 
d="M550 -21c-117.333 0 -209 37.667 -275 113s-99 192.666 -99 351.999v483l-124 28v127h124h197v-640c0 -115.333 17 -194.666 51 -237.999s87 -65 159 -65c70 0 127.833 14.167 173.5 42.5s80.167 68.5 103.5 120.5v625l-145 28v127h145h197v-928l124 -28v-126h-301
l-13 160c-34 -58 -77.833 -102.667 -131.5 -134s-115.5 -47 -185.5 -47zM597 1288l-2 5l241 267h228l3 -6l-299 -266h-171zM333 1288h-7l184 272h211l2 -5l-240 -267h-150z" />
    <glyph glyph-name="Uogonek" unicode="&#x172;" horiz-adv-x="1522" 
d="M755 -21c-100 0 -189.331 19.668 -267.998 59.001s-140.667 95.5 -186 168.5s-68 160.5 -68 262.5v832l-163 28v127h523v-127l-163 -28v-832c0 -72.667 13.833 -133.667 41.5 -183s66.167 -86.5 115.5 -111.5s106.333 -37.5 171 -37.5
c65.333 0 123.166 12.333 173.499 37s89.666 61.667 117.999 111s42.5 110.666 42.5 183.999v832l-163 28v127h523v-127l-163 -28v-832c0 -105.333 -22.167 -194.5 -66.5 -267.5s-106.5 -128.333 -186.5 -166s-173.667 -56.5 -281 -56.5zM815.002 -431.999
c-70 0 -125.831 18.334 -167.498 55.001s-62.5 88 -62.5 154c0 53.333 19.833 103.833 59.5 151.5s102.5 90.5 188.5 128.5l71 -57c-46.667 -34.667 -83.167 -67.834 -109.5 -99.501s-39.5 -65.5 -39.5 -101.5c0 -28 7.5 -50 22.5 -66s39.5 -24 73.5 -24
c18 0 34.667 2.5 50 7.5s31.666 11.167 48.999 18.5l33 -123c-24 -12.667 -49.833 -23.167 -77.5 -31.5s-57.834 -12.5 -90.501 -12.5z" />
    <glyph glyph-name="uogonek" unicode="&#x173;" horiz-adv-x="1245" 
d="M550 -21c-117.333 0 -209 37.667 -275 113s-99 192.666 -99 351.999v483l-124 28v127h124h197v-640c0 -115.333 17 -194.666 51 -237.999s87 -65 159 -65c70 0 127.833 14.167 173.5 42.5s80.167 68.5 103.5 120.5v625l-145 28v127h145h197v-928l124 -28v-126h-301
l-13 160c-34 -58 -77.833 -102.667 -131.5 -134s-115.5 -47 -185.5 -47zM1092 -432c-70 0 -125.831 18.334 -167.498 55.001s-62.5 88 -62.5 154c0 53.333 19.833 103.833 59.5 151.5s102.5 90.5 188.5 128.5l71 -57c-46.667 -34.667 -83.167 -67.834 -109.5 -99.501
s-39.5 -65.5 -39.5 -101.5c0 -28 7.5 -50 22.5 -66s39.5 -24 73.5 -24c18 0 34.667 2.5 50 7.5s31.666 11.167 48.999 18.5l33 -123c-24 -12.667 -49.833 -23.167 -77.5 -31.5s-57.834 -12.5 -90.501 -12.5z" />
    <glyph glyph-name="Wcircumflex" unicode="&#x174;" horiz-adv-x="2129" 
d="M535 0l-340 1314l-123 15v127h472v-127l-151 -23l190 -801l44 -187l6 -1l58 187l293 952h173l296 -952l57 -198h6l52 198l188 802l-163 23v127h464v-127l-115 -15l-326 -1314h-187l-316 1008l-40 147h-6l-39 -147l-317 -1008h-176zM758 1591v26l246 237h119l248 -238v-25
h-161l-147 148l-145 -148h-160z" />
    <glyph glyph-name="wcircumflex" unicode="&#x175;" horiz-adv-x="1823" 
d="M458 0l-285 941l-121 14v127h447v-127l-133 -22l149 -539l34 -128h6l44 128l235 688h166l224 -686l48 -152h6l47 152l151 538l-136 21v127h437v-127l-120 -17l-280 -938h-187l-219 650l-52 174l-6 -1l-51 -173l-235 -650h-169zM605 1297v26l246 237h119l248 -238v-25
h-161l-147 148l-145 -148h-160z" />
    <glyph glyph-name="Ycircumflex" unicode="&#x176;" horiz-adv-x="1461" 
d="M470 0v126l163 28v376l-448 780l-120 19v127h502v-127l-166 -19l309 -572l21 -39l1 2l20 37l324 572l-172 19v127h492v-127l-127 -19l-440 -765v-391l163 -28v-126h-522zM424 1591v26l246 237h119l248 -238v-25h-161l-147 148l-145 -148h-160z" />
    <glyph glyph-name="ycircumflex" unicode="&#x177;" horiz-adv-x="1192" 
d="M309 -437c-15.333 0 -35.333 1.83301 -60 5.5s-43.667 7.16699 -57 10.5l20 155c11.333 -1.33301 27 -2.5 47 -3.5s33.667 -1.5 41 -1.5c42 0 76.167 16 102.5 48s50.833 75.667 73.5 131l47 114l-383 917l-116 16v127h454v-127l-131 -20l211 -541l51 -141h6l250 682
l-138 20v127h445v-127l-112 -16l-426 -1105c-20 -52 -44.167 -98.5 -72.5 -139.5s-63 -73.167 -104 -96.5s-90.5 -35 -148.5 -35zM289 1297v26l246 237h119l248 -238v-25h-161l-147 148l-145 -148h-160z" />
    <glyph glyph-name="Ydieresis" unicode="&#x178;" horiz-adv-x="1461" 
d="M470 0v126l163 28v376l-448 780l-120 19v127h502v-127l-166 -19l309 -572l21 -39l1 2l20 37l324 572l-172 19v127h492v-127l-127 -19l-440 -765v-391l163 -28v-126h-522zM839 1643v211h207v-211h-207zM416 1643v211h207v-211h-207z" />
    <glyph glyph-name="Zacute" unicode="&#x179;" horiz-adv-x="1197" 
d="M90 0v149l757 1153h-566l-18 -188h-158v342h969v-145l-761 -1158h619l18 207h157v-360h-1017zM464 1582l184 272h230l2 -6l-269 -266h-138h-9z" />
    <glyph glyph-name="zacute" unicode="&#x17a;" horiz-adv-x="1032" 
d="M88 0v138l589 792h-403l-25 -182h-148v334h820v-134l-595 -798h461l26 183h147v-333h-872zM395 1288l184 272h230l2 -6l-269 -266h-138h-9z" />
    <glyph glyph-name="Zdotaccent" unicode="&#x17b;" horiz-adv-x="1197" 
d="M90 0v149l757 1153h-566l-18 -188h-158v342h969v-145l-761 -1158h619l18 207h157v-360h-1017zM481 1643v211h207v-211h-207z" />
    <glyph glyph-name="zdotaccent" unicode="&#x17c;" horiz-adv-x="1032" 
d="M88 0v138l589 792h-403l-25 -182h-148v334h820v-134l-595 -798h461l26 183h147v-333h-872zM412 1349v211h207v-211h-207z" />
    <glyph glyph-name="Zcaron" unicode="&#x17d;" horiz-adv-x="1197" 
d="M90 0v149l757 1153h-566l-18 -188h-158v342h969v-145l-761 -1158h619l18 207h157v-360h-1017zM891 1854v-26l-246 -237h-119l-248 238v25h161l147 -148l145 148h160z" />
    <glyph glyph-name="zcaron" unicode="&#x17e;" horiz-adv-x="1032" 
d="M88 0v138l589 792h-403l-25 -182h-148v334h820v-134l-595 -798h461l26 183h147v-333h-872zM822 1560v-26l-246 -237h-119l-248 238v25h161l147 -148l145 148h160z" />
    <glyph glyph-name="longs" unicode="&#x17f;" horiz-adv-x="734" 
d="M57 0l0.00195312 126l163 28v1065c0 115.333 30.167 204.5 90.5 267.5s144.5 94.5 252.5 94.5c22.667 0 45.5 -1.83301 68.5 -5.5s48.5 -8.83398 76.5 -15.501l-25 -145c-12.667 3.33301 -26.334 6 -41.001 8s-30.334 3 -47.001 3c-58 0 -102.167 -18.167 -132.5 -54.5
s-45.5 -87.166 -45.5 -152.499v-1065l163 -28v-126h-523z" />
    <glyph glyph-name="uni018F" unicode="&#x18f;" horiz-adv-x="1402" 
d="M699 -21c-134.667 0 -248.167 26.499 -340.5 79.499s-162.166 129.167 -209.499 228.5s-71 218.333 -71 357v110h1006v54c0 101.333 -17 190.5 -51 267.5s-85.167 137.333 -153.5 181s-154.166 65.5 -257.499 65.5c-76 0 -141 -7.83301 -195 -23.5
s-107.333 -35.834 -160 -60.501l-49 139c34.667 23.333 85.667 45.833 153 67.5s151 32.5 251 32.5c138 0 256.167 -28 354.5 -84s173.666 -134.167 225.999 -234.5s78.5 -217.166 78.5 -350.499v-163c0 -128.667 -26 -243.167 -78 -343.5
s-121.833 -179.166 -209.5 -236.499s-185.834 -86 -294.501 -86zM699 132.999c76.667 0 143 20.832 199 62.499s100 98.834 132 171.501s49.667 155.667 53 249v3h-808v-33c0 -92 14.5 -172 43.5 -240s74.667 -120.5 137 -157.5s143.5 -55.5 243.5 -55.5z" />
    <glyph glyph-name="florin" unicode="&#x192;" horiz-adv-x="767" 
d="M109 -437c-21.333 0 -40.666 1.49902 -57.999 4.49902s-35.333 7.5 -54 13.5l13 150c9.33301 -3.33301 25.166 -6.33301 47.499 -9s39.5 -4 51.5 -4c39.333 0 70.5 17.167 93.5 51.5s34.5 81.5 34.5 141.5v1025h-170v146h170v137c0 115.333 30 204.5 90 267.5
s144 94.5 252 94.5c22.667 0 45.5 -1.83301 68.5 -5.5s48.5 -8.83398 76.5 -15.501l-24 -150c-12 2.66699 -26.5 5 -43.5 7s-34.5 3 -52.5 3c-58 0 -100.833 -17.167 -128.5 -51.5s-41.5 -84.166 -41.5 -149.499v-137h196v-146h-196v-1025
c0 -111.333 -28.667 -197.166 -86 -257.499s-137 -90.5 -239 -90.5z" />
    <glyph glyph-name="Ohorn" unicode="&#x1a0;" horiz-adv-x="1351" 
d="M675 -21c-94 0 -178.333 18 -253 54s-138.167 86.833 -190.5 152.5s-92.333 143.5 -120 233.5s-41.5 189.333 -41.5 298v21c0 108 13.833 207.167 41.5 297.5s67.667 168.5 120 234.5s115.833 117 190.5 153s159 54 253 54c99.333 0 186.666 -18 261.999 -54
s138.5 -87 189.5 -153s89.5 -144.167 115.5 -234.5s39 -189.5 39 -297.5v-21c0 -108.667 -13 -208 -39 -298s-64.5 -167.833 -115.5 -233.5s-114.167 -116.5 -189.5 -152.5s-162.666 -54 -261.999 -54zM675 143c96.667 0 174.833 24 234.5 72s103.5 115.167 131.5 201.5
s42 186.5 42 300.5v23c0 113.333 -14.167 212.833 -42.5 298.5s-72.5 152.667 -132.5 201s-137.667 72.5 -233 72.5c-87.333 0 -161.333 -24.333 -222 -73s-106.667 -115.834 -138 -201.501s-47 -184.834 -47 -297.501v-23c0 -113.333 15.667 -213.166 47 -299.499
s77.333 -153.666 138 -201.999s134.667 -72.5 222 -72.5zM985.999 1188l-0.999023 134.999c81.333 0 136.666 25.833 165.999 77.5s43.333 115.834 42 192.501h178c0 -78.667 -12.833 -148.5 -38.5 -209.5s-66.667 -108.833 -123 -143.5s-130.833 -52 -223.5 -52z" />
    <glyph glyph-name="ohorn" unicode="&#x1a1;" horiz-adv-x="1163" 
d="M563 -21c-100 0 -186.166 23.5 -258.499 70.5s-128.166 112 -167.499 195s-59 177.833 -59 284.5v22c0 106.667 19.667 201.5 59 284.5s95.166 148.167 167.499 195.5s157.833 71 256.5 71c100 0 186.167 -23.667 258.5 -71s128.166 -112.333 167.499 -195
s59 -177.667 59 -285v-22c0 -107.333 -19.667 -202.5 -59 -285.5s-95 -147.833 -167 -194.5s-157.667 -70 -257 -70zM563.001 133c62.667 0 115.169 17.167 157.502 51.5s74.333 81.333 96 141s32.5 127.5 32.5 203.5v22c0 76 -10.833 143.833 -32.5 203.5
s-53.834 106.667 -96.501 141s-95.667 51.5 -159 51.5c-62.667 0 -115.334 -17.167 -158.001 -51.5s-74.667 -81.333 -96 -141s-32 -127.5 -32 -203.5v-22c0 -76 10.667 -143.833 32 -203.5s53.5 -106.667 96.5 -141s96.167 -51.5 159.5 -51.5zM818.003 839l-1 119.999
c55.333 0 96.333 9.16699 123 27.5s44.167 45.5 52.5 81.5s12.5 80.333 12.5 133h158c0 -71.333 -10.333 -134.166 -31 -188.499s-56 -96.833 -106 -127.5s-119.333 -46 -208 -46z" />
    <glyph glyph-name="Uhorn" unicode="&#x1af;" horiz-adv-x="1724" 
d="M773 -21c-106.667 0 -200.668 18.833 -282.001 56.5s-144.666 93 -189.999 166s-68 162.167 -68 267.5v832l-163 28v127h524v-127l-163 -28v-832c0 -73.333 14.333 -135 43 -185s68.667 -87.667 120 -113s111 -38 179 -38c72 0 135 12.667 189 38s96 63 126 113
s45 111.667 45 185v832l-163 28v127h360v-987c0 -105.333 -23.5 -194.5 -70.5 -267.5s-112.167 -128.333 -195.5 -166s-180.333 -56.5 -291 -56.5zM1280 1103l0.999023 147c92 -2.66699 156.5 21 193.5 71s55.5 126 55.5 228h173v-5
c2.66699 -142.667 -30.166 -251.5 -98.499 -326.5s-176.5 -113.167 -324.5 -114.5z" />
    <glyph glyph-name="uhorn" unicode="&#x1b0;" horiz-adv-x="1339" 
d="M550 -21c-117.333 0 -209 37.667 -275 113s-99 192.666 -99 351.999v483l-124 28v127h124h197v-640c0 -115.333 17 -194.666 51 -237.999s87 -65 159 -65c70 0 127.833 14.167 173.5 42.5s80.167 68.5 103.5 120.5v625l-145 28v127h145h197v-928l124 -28v-126h-301
l-13 160c-34 -58 -77.833 -102.667 -131.5 -134s-115.5 -47 -185.5 -47zM1006 839l-1 119.999c55.333 0 96.333 9.16699 123 27.5s44.167 45.5 52.5 81.5s12.5 80.333 12.5 133h158c0 -71.333 -10.333 -134.166 -31 -188.499s-56 -96.833 -106 -127.5s-119.333 -46 -208 -46
z" />
    <glyph glyph-name="uni01F0" unicode="&#x1f0;" horiz-adv-x="525" 
d="M56 -437c-21.333 0 -40.666 1.49902 -57.999 4.49902s-35.333 7.5 -54 13.5l13 150c9.33301 -3.33301 25.166 -6.33301 47.499 -9s39.5 -4 51.5 -4c39.333 0 70.5 17.167 93.5 51.5s34.5 81.5 34.5 141.5v1016l-163 28v127h360v-1171
c0 -111.333 -28.667 -197.166 -86 -257.499s-137 -90.5 -239 -90.5zM584 1560v-26l-246 -237h-119l-248 238v25h161l147 -148l145 148h160z" />
    <glyph glyph-name="Aringacute" unicode="&#x1fa;" horiz-adv-x="1533" 
d="M70 0v126l108 15l509 1315h169l500 -1315l107 -15v-126h-418v126l110 19l-96 268h-583l-99 -268l110 -19v-126h-417zM537 578h462l-214 592l-12 33h-6l-12 -33zM771 1368c-56.667 0 -104.667 17.5 -144 52.5s-59 80.5 -59 136.5c0 54.667 19.667 100.5 59 137.5
s87.333 55.5 144 55.5c55.333 0 102.5 -18.333 141.5 -55s58.5 -82.667 58.5 -138c0 -56 -19.5 -101.5 -58.5 -136.5s-86.167 -52.5 -141.5 -52.5zM771 1458c27.333 0 50.333 9.33105 69 27.998s28 42.334 28 71.001s-9.33301 52.834 -28 72.501s-41.667 29.5 -69 29.5
c-28 0 -51.667 -9.83301 -71 -29.5s-29 -43.834 -29 -72.501c0 -27.333 9.83301 -50.666 29.5 -69.999s43.167 -29 70.5 -29zM693 1806l123 231h193l2 -6l-188 -225h-121h-9z" />
    <glyph glyph-name="aringacute" unicode="&#x1fb;" horiz-adv-x="1132" 
d="M424 -21c-112.667 0 -198.336 27.5029 -257.003 82.5029s-88 132.5 -88 232.5c0 68.667 18.833 128.5 56.5 179.5s92.167 90.667 163.5 119s156.666 42.5 255.999 42.5h193v106c0 65.333 -19.833 116 -59.5 152s-95.5 54 -167.5 54
c-45.333 0 -84.666 -5.5 -117.999 -16.5s-63.666 -26.167 -90.999 -45.5l-21 -151h-152v248c48.667 39.333 105.334 69.166 170.001 89.499s136.334 30.5 215.001 30.5c131.333 0 234.333 -31.333 309 -94s112 -152.334 112 -269.001v-521c0 -14 0.166992 -27.667 0.5 -41
s1.16602 -26.666 2.49902 -39.999l105 -11v-126h-283c-6 29.333 -10.667 55.666 -14 78.999s-5.66602 46.666 -6.99902 69.999c-38 -48.667 -85.5 -89.167 -142.5 -121.5s-117.833 -48.5 -182.5 -48.5zM452.998 144.003c65.333 0 125.001 15.666 179.001 46.999
s92.667 69 116 113v196h-200c-90.667 0 -158.667 -21.667 -204 -65s-68 -91.666 -68 -144.999c0 -47.333 14.667 -83.5 44 -108.5s73.666 -37.5 132.999 -37.5zM533.999 1074c-56.667 0 -104.667 17.5 -144 52.5s-59 80.5 -59 136.5c0 54.667 19.667 100.5 59 137.5
s87.333 55.5 144 55.5c55.333 0 102.5 -18.333 141.5 -55s58.5 -82.667 58.5 -138c0 -56 -19.5 -101.5 -58.5 -136.5s-86.167 -52.5 -141.5 -52.5zM533.999 1164c27.333 0 50.333 9.33105 69 27.998s28 42.334 28 71.001s-9.33301 52.834 -28 72.501s-41.667 29.5 -69 29.5
c-28 0 -51.667 -9.83301 -71 -29.5s-29 -43.834 -29 -72.501c0 -27.333 9.83301 -50.666 29.5 -69.999s43.167 -29 70.5 -29zM455.999 1512l123 231h193l2 -6l-188 -225h-121h-9z" />
    <glyph glyph-name="AEacute" unicode="&#x1fc;" horiz-adv-x="2096" 
d="M51 0v126l141 20l793 1310h967v-322h-168l-15 167h-508l20 -466h590v-155h-584l22 -526h522l16 167h167v-321h-1058v126l156 27l-8 197h-556l-121 -210l82 -14v-126h-458zM651 529h446l-31 710l-5 2l-8 -14zM1037 1582l184 272h230l2 -6l-269 -266h-138h-9z" />
    <glyph glyph-name="aeacute" unicode="&#x1fd;" horiz-adv-x="1737" 
d="M435 -21c-116.667 0 -205.166 28.334 -265.499 85.001s-90.5 136 -90.5 238c0 68 19 127.333 57 178s92.5 90 163.5 118s156.5 42 256.5 42h193v101c0 65.333 -19.833 116 -59.5 152s-95.5 54 -167.5 54c-45.333 0 -84.666 -5.5 -117.999 -16.5
s-63.666 -26.167 -90.999 -45.5l-21 -151h-152v248c48.667 39.333 105.334 69.166 170.001 89.499s136.334 30.5 215.001 30.5c81.333 0 151.666 -13.833 210.999 -41.5s105.333 -68.834 138 -123.501c28.667 35.333 60.667 65.333 96 90s73.5 43.334 114.5 56.001
s83.833 19 128.5 19c95.333 0 176 -19.5 242 -58.5s116.333 -95 151 -168s52 -160.167 52 -261.5v-119h-710l-2 -5c0.666992 -106 27.167 -192 79.5 -258s130.166 -99 233.499 -99c69.333 0 126 9.16699 170 27.5s92 44.5 144 78.5l68 -138
c-36.667 -30 -86.334 -57.833 -149.001 -83.5s-140.334 -38.5 -233.001 -38.5c-180.667 0 -323.334 70.333 -428.001 211c-46.667 -69.333 -103.5 -121.833 -170.5 -157.5s-142.167 -53.5 -225.5 -53.5zM454.001 144.001c45.333 0 88.168 8.99902 128.501 26.999
s76 42 107 72s54.5 63 70.5 99c-4 32.667 -6.83301 60.667 -8.5 84s-2.5 49.333 -2.5 78v1h-200c-90.667 0 -158.834 -21.167 -204.501 -63.5s-68.5 -90.166 -68.5 -143.499c0 -43.333 14.667 -79.833 44 -109.5s74 -44.5 134 -44.5zM950.003 640h510.999v31
c0 81.333 -20 147.666 -60 198.999s-102.667 77 -188 77c-50.667 0 -95 -12.833 -133 -38.5s-68.167 -61.167 -90.5 -106.5s-36.166 -97.666 -41.499 -156.999zM771.002 1288l184 272h230l2 -6l-269 -266h-138h-9z" />
    <glyph glyph-name="Oslashacute" unicode="&#x1fe;" horiz-adv-x="1351" 
d="M675 -21c-94 0 -178.333 18 -253 54s-138.167 86.833 -190.5 152.5s-92.333 143.5 -120 233.5s-41.5 189.333 -41.5 298v21c0 108 13.833 207.167 41.5 297.5s67.667 168.5 120 234.5s115.833 117 190.5 153s159 54 253 54c99.333 0 186.666 -18 261.999 -54
s138.5 -87 189.5 -153s89.5 -144.167 115.5 -234.5s39 -189.5 39 -297.5v-21c0 -108.667 -13 -208 -39 -298s-64.5 -167.833 -115.5 -233.5s-114.167 -116.5 -189.5 -152.5s-162.666 -54 -261.999 -54zM675 143c96.667 0 174.833 24 234.5 72s103.5 115.167 131.5 201.5
s42 186.5 42 300.5v23c0 113.333 -14.167 212.833 -42.5 298.5s-72.5 152.667 -132.5 201s-137.667 72.5 -233 72.5c-87.333 0 -161.333 -24.333 -222 -73s-106.667 -115.834 -138 -201.501s-47 -184.834 -47 -297.501v-23c0 -113.333 15.667 -213.166 47 -299.499
s77.333 -153.666 138 -201.999s134.667 -72.5 222 -72.5zM122.999 -94l956 1611h149l-956 -1611h-149zM554.999 1582l184 272h230l2 -6l-269 -266h-138h-9z" />
    <glyph glyph-name="oslashacute" unicode="&#x1ff;" horiz-adv-x="1124" 
d="M563 -21c-100 0 -186.166 23.5 -258.499 70.5s-128.166 112 -167.499 195s-59 177.833 -59 284.5v22c0 106.667 19.667 201.5 59 284.5s95.166 148.167 167.499 195.5s157.833 71 256.5 71c100 0 186.167 -23.667 258.5 -71s128.166 -112.333 167.499 -195
s59 -177.667 59 -285v-22c0 -107.333 -19.667 -202.5 -59 -285.5s-95 -147.833 -167 -194.5s-157.667 -70 -257 -70zM563.001 133c62.667 0 115.169 17.167 157.502 51.5s74.333 81.333 96 141s32.5 127.5 32.5 203.5v22c0 76 -10.833 143.833 -32.5 203.5
s-53.834 106.667 -96.501 141s-95.667 51.5 -159 51.5c-62.667 0 -115.334 -17.167 -158.001 -51.5s-74.667 -81.333 -96 -141s-32 -127.5 -32 -203.5v-22c0 -76 10.667 -143.833 32 -203.5s53.5 -106.667 96.5 -141s96.167 -51.5 159.5 -51.5zM165.003 -131l664 1344h129
l-664 -1344h-129zM441.003 1288l184 272h230l2 -6l-269 -266h-138h-9z" />
    <glyph glyph-name="uni0218" unicode="&#x218;" horiz-adv-x="1206" 
d="M606 -21c-88.667 0 -174.002 13.001 -256.002 39.001s-160.333 66 -235 120v311h153l33 -229c43.333 -26.667 90.333 -47.334 141 -62.001s105.334 -22 164.001 -22c66.667 0 123.167 10.167 169.5 30.5s81.833 48.5 106.5 84.5s37 78 37 126
c0 44.667 -10.667 84 -32 118s-56.5 63.833 -105.5 89.5s-115.833 48.167 -200.5 67.5c-100 23.333 -184.5 54.5 -253.5 93.5s-121.333 86.333 -157 142s-53.5 119.5 -53.5 191.5c0 76 20.167 144 60.5 204s96.5 107.333 168.5 142s156 52 252 52
c102 0 192.167 -15.5 270.5 -46.5s142.833 -68.5 193.5 -112.5v-291h-153l-33 208c-30 24 -67.333 44 -112 60s-100 24 -166 24c-56 0 -105.333 -9.83301 -148 -29.5s-76 -47.167 -100 -82.5s-36 -77 -36 -125c0 -42 10.833 -78.667 32.5 -110s57 -58.833 106 -82.5
s114.5 -45.834 196.5 -66.501c153.333 -38 269.5 -94.167 348.5 -168.5s118.5 -166.166 118.5 -275.499c0 -78 -21 -147.167 -63 -207.5s-101.167 -107.5 -177.5 -141.5s-166.166 -51 -269.499 -51zM543.998 -536.999l-86 74.001c24 33.333 41.667 66.666 53 99.999
s17 72 17 116v90h180v-87c0 -60.667 -13.167 -115.167 -39.5 -163.5s-67.833 -91.5 -124.5 -129.5z" />
    <glyph glyph-name="uni0219" unicode="&#x219;" horiz-adv-x="1022" 
d="M512 -21c-72.667 0 -140.669 7.33203 -204.002 21.999s-130.666 37.334 -201.999 68.001l-2 257h149l37 -155c37.333 -15.333 73.5 -26.5 108.5 -33.5s72.833 -10.5 113.5 -10.5c80 0 137.333 15.333 172 46s52 68.667 52 114c0 42.667 -17.5 78.834 -52.5 108.501
s-98.5 54.834 -190.5 75.501c-130.667 30 -226.834 70.167 -288.501 120.5s-92.5 117.5 -92.5 201.5c0 58.667 17 111.167 51 157.5s81.333 83.166 142 110.499s131.334 41 212.001 41c82 0 152.167 -9.33301 210.5 -28s109.166 -43.667 152.499 -75l10 -247h-148l-32 144
c-23.333 17.333 -51 30.666 -83 39.999s-68.667 14 -110 14c-61.333 0 -111.166 -14.333 -149.499 -43s-57.5 -64.667 -57.5 -108c0 -25.333 5.5 -47.333 16.5 -66s32.167 -35.5 63.5 -50.5s77.333 -29.833 138 -44.5c150.667 -35.333 255.834 -80.333 315.501 -135
s89.5 -122 89.5 -202c0 -91.333 -33.833 -167.833 -101.5 -229.5s-174.167 -92.5 -319.5 -92.5zM451.998 -537.001l-86 74.001c24 33.333 41.667 66.666 53 99.999s17 72 17 116v90h180v-87c0 -60.667 -13.167 -115.167 -39.5 -163.5s-67.833 -91.5 -124.5 -129.5z" />
    <glyph glyph-name="uni021A" unicode="&#x21a;" horiz-adv-x="1406" 
d="M440 0v126l163 28v1153h-330l-29 -202h-148v351h1210v-351h-146l-30 202h-330v-1153l163 -28v-126h-523zM644 -537l-86 74.001c24 33.333 41.667 66.666 53 99.999s17 72 17 116v90h180v-87c0 -60.667 -13.167 -115.167 -39.5 -163.5s-67.833 -91.5 -124.5 -129.5z" />
    <glyph glyph-name="uni021B" unicode="&#x21b;" horiz-adv-x="730" 
d="M456 -17c-80 0 -143.5 23.502 -190.5 70.502s-70.5 122.167 -70.5 225.5v657h-171v146h171v261h197v-261h235v-146h-235v-657c0 -52 10.333 -90.333 31 -115s48.334 -37 83.001 -37c23.333 0 49.333 2.16699 78 6.5s51 8.16602 67 11.499l27 -129
c-28.667 -8.66699 -63.834 -16.334 -105.501 -23.001s-80.5 -10 -116.5 -10zM353 -536.998l-86 74.001c24 33.333 41.667 66.666 53 99.999s17 72 17 116v90h180v-87c0 -60.667 -13.167 -115.167 -39.5 -163.5s-67.833 -91.5 -124.5 -129.5z" />
    <glyph glyph-name="uni0237" unicode="&#x237;" horiz-adv-x="525" 
d="M56 -437c-21.333 0 -40.666 1.49902 -57.999 4.49902s-35.333 7.5 -54 13.5l13 150c9.33301 -3.33301 25.166 -6.33301 47.499 -9s39.5 -4 51.5 -4c39.333 0 70.5 17.167 93.5 51.5s34.5 81.5 34.5 141.5v1016l-163 28v127h360v-1171
c0 -111.333 -28.667 -197.166 -86 -257.499s-137 -90.5 -239 -90.5z" />
    <glyph glyph-name="uni0259" unicode="&#x259;" horiz-adv-x="1115" 
d="M547 -19c-98 0 -179.833 19.834 -245.5 59.501s-115.167 95.667 -148.5 168s-50 157.5 -50 255.5v123h704v3v2c-1.33301 68.667 -13.5 130 -36.5 184s-56 96.333 -99 127s-94.833 46 -155.5 46c-67.333 0 -126 -9.83301 -176 -29.5s-93.333 -45.834 -130 -78.501l-77 129
c38.667 37.333 89.667 68.833 153 94.5s140 38.5 230 38.5c100 0 187 -23 261 -69s131.167 -109.667 171.5 -191s60.5 -175 60.5 -281v-44c0 -103.333 -21.167 -195.5 -63.5 -276.5s-98.5 -144.833 -168.5 -191.5s-146.667 -69.667 -230 -69zM547 135.001
c43.333 0 82.833 12.5 118.5 37.5s65.167 59.5 88.5 103.5s38.666 94.333 45.999 151l-2 5h-498v-25c0 -52 9.16699 -98.5 27.5 -139.5s45.833 -73.333 82.5 -97s82.334 -35.5 137.001 -35.5z" />
    <glyph glyph-name="uni02BC" unicode="&#x2bc;" horiz-adv-x="418" 
d="M157 993l-112 74.001c31.333 47.333 55 95.833 71 145.5s24 103.167 24 160.5v187h197v-184c0 -44.667 -7.33301 -90.667 -22 -138s-35.5 -92.333 -62.5 -135s-58.833 -79.334 -95.5 -110.001z" />
    <glyph glyph-name="circumflex" unicode="&#x2c6;" horiz-adv-x="693" 
d="M40 1297v26l246 237h119l248 -238v-25h-161l-147 148l-145 -148h-160z" />
    <glyph glyph-name="caron" unicode="&#x2c7;" horiz-adv-x="693" 
d="M653 1560v-26l-246 -237h-119l-248 238v25h161l147 -148l145 148h160z" />
    <glyph glyph-name="uni02C9" unicode="&#x2c9;" horiz-adv-x="801" 
d="M40 1350v146h721v-146h-721z" />
    <glyph glyph-name="breve" unicode="&#x2d8;" horiz-adv-x="702" 
d="M351 1272c-96.667 0 -172.668 26.167 -228.001 78.5s-83 120.166 -83 203.499l2 6h150c0 -48 12.833 -87 38.5 -117s65.834 -45 120.501 -45c53.333 0 93 15 119 45s39 69 39 117h151l2 -6c-0.666992 -83.333 -28.5 -151.166 -83.5 -203.499s-130.833 -78.5 -227.5 -78.5
z" />
    <glyph glyph-name="dotaccent" unicode="&#x2d9;" horiz-adv-x="287" 
d="M40 1349v211h207v-211h-207z" />
    <glyph glyph-name="ring" unicode="&#x2da;" horiz-adv-x="493" 
d="M248 1225c-58 0 -107.167 18.001 -147.5 54.001s-60.5 82.667 -60.5 140c0 56 20.167 103 60.5 141s89.5 57 147.5 57c56.667 0 105 -18.833 145 -56.5s60 -84.834 60 -141.501c0 -57.333 -20 -104 -60 -140s-88.333 -54 -145 -54zM248 1315
c28 0 51.998 9.83301 71.998 29.5s30 44.5 30 74.5s-10 55.333 -30 76s-44 31 -72 31c-29.333 0 -54.166 -10.333 -74.499 -31s-30.5 -46 -30.5 -76c0 -28.667 10.333 -53.167 31 -73.5s45.334 -30.5 74.001 -30.5z" />
    <glyph glyph-name="ogonek" unicode="&#x2db;" horiz-adv-x="478" 
d="M270 -432c-70 0 -125.831 18.334 -167.498 55.001s-62.5 88 -62.5 154c0 53.333 19.833 103.833 59.5 151.5s102.5 90.5 188.5 128.5l71 -57c-46.667 -34.667 -83.167 -67.834 -109.5 -99.501s-39.5 -65.5 -39.5 -101.5c0 -28 7.5 -50 22.5 -66s39.5 -24 73.5 -24
c18 0 34.667 2.5 50 7.5s31.666 11.167 48.999 18.5l33 -123c-24 -12.667 -49.833 -23.167 -77.5 -31.5s-57.834 -12.5 -90.501 -12.5z" />
    <glyph glyph-name="tilde" unicode="&#x2dc;" horiz-adv-x="773" 
d="M147 1305l-106.999 22.001c0 42.667 9.33301 81.667 28 117s43.667 63.833 75 85.5s66.333 32.5 105 32.5c30 0 62 -8.33301 96 -25l98.5 -50c31.667 -16.667 58.834 -25 81.501 -25c27.333 0 51 10.833 71 32.5s30 48.5 30 80.5l108 -28
c0 -42.667 -9.33301 -81.334 -28 -116.001s-43.834 -62.167 -75.501 -82.5s-66.834 -30.5 -105.501 -30.5c-32.667 0 -66 8.16699 -100 24.5s-66.167 32.833 -96.5 49.5s-56.833 25 -79.5 25c-28 0 -51.833 -10.833 -71.5 -32.5s-29.5 -48.167 -29.5 -79.5z" />
    <glyph glyph-name="hungarumlaut" unicode="&#x2dd;" horiz-adv-x="821" 
d="M311 1288l-2 5l241 267h228l3 -6l-299 -266h-171zM47 1288h-7l184 272h211l2 -5l-240 -267h-150z" />
    <glyph glyph-name="uni02F3" unicode="&#x2f3;" horiz-adv-x="473" 
d="M238 -510c-58 0 -107.167 18.001 -147.5 54.001s-60.5 82.667 -60.5 140c0 56 20.167 103 60.5 141s89.5 57 147.5 57c56.667 0 105 -18.833 145 -56.5s60 -84.834 60 -141.501c0 -57.333 -20 -104 -60 -140s-88.333 -54 -145 -54zM238 -419.999
c28 0 51.998 9.83301 71.998 29.5s30 44.5 30 74.5s-10 55.333 -30 76s-44 31 -72 31c-29.333 0 -54.166 -10.333 -74.499 -31s-30.5 -46 -30.5 -76c0 -28.667 10.333 -53.167 31 -73.5s45.334 -30.5 74.001 -30.5z" />
    <glyph glyph-name="gravecomb" unicode="&#x300;" 
d="M456 1288h-9h-138l-269 266l2 6h230z" />
    <glyph glyph-name="acutecomb" unicode="&#x301;" 
d="M40 1288l184 272h230l2 -6l-269 -266h-138h-9z" />
    <glyph glyph-name="uni0302" unicode="&#x302;" 
d="M40 1297v26l246 237h119l248 -238v-25h-161l-147 148l-145 -148h-160z" />
    <glyph glyph-name="tildecomb" unicode="&#x303;" 
d="M147 1305l-106.999 22.001c0 42.667 9.33301 81.667 28 117s43.667 63.833 75 85.5s66.333 32.5 105 32.5c30 0 62 -8.33301 96 -25l98.5 -50c31.667 -16.667 58.834 -25 81.501 -25c27.333 0 51 10.833 71 32.5s30 48.5 30 80.5l108 -28
c0 -42.667 -9.33301 -81.334 -28 -116.001s-43.834 -62.167 -75.501 -82.5s-66.834 -30.5 -105.501 -30.5c-32.667 0 -66 8.16699 -100 24.5s-66.167 32.833 -96.5 49.5s-56.833 25 -79.5 25c-28 0 -51.833 -10.833 -71.5 -32.5s-29.5 -48.167 -29.5 -79.5z" />
    <glyph glyph-name="uni0304" unicode="&#x304;" 
d="M40 1350v146h721v-146h-721z" />
    <glyph glyph-name="uni0306" unicode="&#x306;" 
d="M351 1272c-96.667 0 -172.668 26.167 -228.001 78.5s-83 120.166 -83 203.499l2 6h150c0 -48 12.833 -87 38.5 -117s65.834 -45 120.501 -45c53.333 0 93 15 119 45s39 69 39 117h151l2 -6c-0.666992 -83.333 -28.5 -151.166 -83.5 -203.499s-130.833 -78.5 -227.5 -78.5
z" />
    <glyph glyph-name="uni0307" unicode="&#x307;" 
d="M40 1349v211h207v-211h-207z" />
    <glyph glyph-name="uni0308" unicode="&#x308;" 
d="M463 1349v211h207v-211h-207zM40 1349v211h207v-211h-207z" />
    <glyph glyph-name="hookabovecomb" unicode="&#x309;" 
d="M59 1253l-1.00195 151.999c50.667 2.66699 86.834 9 108.501 19s32.5 27.333 32.5 52c0 24 -14.667 41.833 -44 53.5s-67.666 17.5 -114.999 17.5l7 108c97.333 0 172.333 -16.667 225 -50s79 -77.666 79 -132.999c0 -46 -14.5 -81 -43.5 -105s-64.833 -39 -107.5 -45
l-1 -69h-140z" />
    <glyph glyph-name="uni030A" unicode="&#x30a;" 
d="M248 1225c-58 0 -107.167 18.001 -147.5 54.001s-60.5 82.667 -60.5 140c0 56 20.167 103 60.5 141s89.5 57 147.5 57c56.667 0 105 -18.833 145 -56.5s60 -84.834 60 -141.501c0 -57.333 -20 -104 -60 -140s-88.333 -54 -145 -54zM248 1315
c28 0 51.998 9.83301 71.998 29.5s30 44.5 30 74.5s-10 55.333 -30 76s-44 31 -72 31c-29.333 0 -54.166 -10.333 -74.499 -31s-30.5 -46 -30.5 -76c0 -28.667 10.333 -53.167 31 -73.5s45.334 -30.5 74.001 -30.5z" />
    <glyph glyph-name="uni030B" unicode="&#x30b;" 
d="M311 1288l-2 5l241 267h228l3 -6l-299 -266h-171zM47 1288h-7l184 272h211l2 -5l-240 -267h-150z" />
    <glyph glyph-name="uni030C" unicode="&#x30c;" 
d="M653 1560v-26l-246 -237h-119l-248 238v25h161l147 -148l145 148h160z" />
    <glyph glyph-name="uni030F" unicode="&#x30f;" 
d="M510 1288h-171l-299 266l3 6h228l241 -267zM774 1288h-150l-240 267l2 5h211l184 -272h-7z" />
    <glyph glyph-name="uni0312" unicode="&#x312;" 
d="M204 1679l86 -74.001c-24 -33.333 -41.667 -66.666 -53 -99.999s-17 -72 -17 -116v-90h-180v87c0 61.333 13.167 116 39.5 164s67.833 91 124.5 129z" />
    <glyph glyph-name="uni031B" unicode="&#x31b;" 
d="M41 839l-1 119.999c55.333 0 96.333 9.16699 123 27.5s44.167 45.5 52.5 81.5s12.5 80.333 12.5 133h158c0 -71.333 -10.333 -134.166 -31 -188.499s-56 -96.833 -106 -127.5s-119.333 -46 -208 -46z" />
    <glyph glyph-name="dotbelowcomb" unicode="&#x323;" 
d="M40 -398v211h207v-211h-207z" />
    <glyph glyph-name="uni0325" unicode="&#x325;" 
d="M248 -510c-58 0 -107.167 18.001 -147.5 54.001s-60.5 82.667 -60.5 140c0 56 20.167 103 60.5 141s89.5 57 147.5 57c56.667 0 105 -18.833 145 -56.5s60 -84.834 60 -141.501c0 -57.333 -20 -104 -60 -140s-88.333 -54 -145 -54zM248 -419.999
c28 0 51.998 9.83301 71.998 29.5s30 44.5 30 74.5s-10 55.333 -30 76s-44 31 -72 31c-29.333 0 -54.166 -10.333 -74.499 -31s-30.5 -46 -30.5 -76c0 -28.667 10.333 -53.167 31 -73.5s45.334 -30.5 74.001 -30.5z" />
    <glyph glyph-name="uni0326.1" unicode="&#x326;" 
d="M126 -537l-86 74.001c24 33.333 41.667 66.666 53 99.999s17 72 17 116v90h180v-87c0 -60.667 -13.167 -115.167 -39.5 -163.5s-67.833 -91.5 -124.5 -129.5z" />
    <glyph glyph-name="uni0327" unicode="&#x327;" 
d="M48 -435l-7 109.002c48 0 86.5 8 115.5 24s43.5 39.667 43.5 71s-12 53 -36 65s-65.333 20.333 -124 25l40 173h141l-20 -90c44 -7.33301 80.333 -24.333 109 -51s43 -66.334 43 -119.001c0 -62.667 -26.333 -112.834 -79 -150.501s-128 -56.5 -226 -56.5z" />
    </font>
</defs>
</svg>
