<?xml version="1.0" standalone="no"?>
<!DOCTYPE svg PUBLIC "-//W3C//DTD SVG 1.1//EN" "http://www.w3.org/Graphics/SVG/1.1/DTD/svg11.dtd" >
<svg xmlns="http://www.w3.org/2000/svg">
<metadata>Generated by IcoMoon</metadata>
<defs>
<font id="dns_it_icons" horiz-adv-x="1024">
<font-face units-per-em="1024" ascent="960" descent="-64" />
<missing-glyph horiz-adv-x="1024" />
<glyph unicode="&#x20;" horiz-adv-x="512" d="" />
<glyph unicode="&#xe900;" glyph-name="start" d="M779.584 853.325c4.373 0.16 9.493-1.813 12.907-5.226s5.278-8.053 5.171-12.906c-1.865-100.42-60.42-217.48-145.749-292.195-2.88-80.529-27.145-147.776-69.065-189.696-3.413-3.413-7.945-5.227-12.582-5.227-1.6 0-3.2 0.269-4.8 0.695-6.187 1.707-10.987 6.665-12.48 12.958l-18.133 75.729-0.533-0.482c-3.358-3.089-7.625-4.582-11.891-4.582-4.587 0-9.122 1.758-12.587 5.222l-127.886 127.887c-6.666 6.72-6.933 17.439-0.64 24.478l0.48 0.533-75.729 18.132c-6.24 1.546-11.199 6.293-12.959 12.479s0 12.852 4.533 17.385c41.97 41.917 109.167 66.183 189.693 69.062 74.505 85.222 191.723 143.884 292.25 145.751zM876.378 715.573h-28.8c-7.467-23.839-17.438-47.624-29.171-71.089h49.067v-391.069h-711.051v391.069h66.822c3.573 16.372 11.732 31.998 24.158 44.424 9.6 9.599 20.265 18.505 31.998 26.665h-131.832c-34.131 0-62.236-28.105-62.236-62.236v-479.969c0-34.133 28.105-62.238 62.236-62.238h272.34c-4.19-17.796-15.322-46.763-44.885-76.326-5.066-5.065-6.613-12.745-3.84-19.358 2.72-6.665 9.226-10.987 16.425-10.987h248.891c7.198 0 13.705 4.322 16.427 10.987 2.667 6.665 1.118 14.293-3.947 19.358-29.534 29.534-40.951 58.47-45.355 76.326h272.802c34.133 0 62.238 28.105 62.238 62.238v479.969c-0.051 34.131-28.16 62.236-62.289 62.236zM265.129 342.908c5.866 19.622 36.371 118.656 60.263 142.549 28.798 28.798 75.622 28.798 104.474 0 28.796-28.8 28.796-75.622 0-104.418-23.84-23.893-122.927-54.4-142.552-60.267-1.707-0.478-3.413-0.747-5.12-0.747-4.693 0-9.226 1.869-12.586 5.227-4.64 4.587-6.346 11.362-4.48 17.655z" />
<glyph unicode="&#xe901;" glyph-name="c" d="M257.651 597.334h-121.393v-50.218h70.886l0.477-327.489h50.031v377.707zM938.654 304.359l-456.162 0.589-5.38 0.657-5.286 0.93-5.167 1.182-5.073 1.442-5.009 1.694-4.855 1.83-4.749 2.176-4.634 2.342-4.476 2.543-4.326 2.765-4.211 2.961-3.997 3.132-3.897 3.337-3.732 3.55-3.514 3.674-3.36 3.866-3.153 4.036-2.98 4.109-2.778 4.348-2.631 4.459-2.345 4.574-2.138 4.715-1.917 4.881-1.623 4.919-1.447 5.056-1.184 5.137-0.958 5.231-0.699 5.363-0.376 5.402-0.166 5.508 0.109 5.466 0.376 5.41 0.582 5.299 0.906 5.248 1.127 5.15 1.383 5.086 1.657 4.988 1.879 4.877 2.071 4.791 2.292 4.612 2.507 4.51 2.769 4.403 2.954 4.228 3.089 4.109 3.356 3.921 3.473 3.759 3.679 3.61 3.894 3.392 3.996 3.234 4.16 3.025 4.326 2.863 4.471 2.615 4.642 2.406 4.745 2.172 4.915 1.967 4.954 1.769 5.12 1.434 5.227 1.214 5.333 1.008 5.44 0.691 5.555 0.422 5.594 0.164 5.44-0.164 5.389-0.422 5.333-0.747 5.222-0.96 5.175-1.27 5.12-1.539 4.962-1.75 4.911-2.010 4.8-2.283 4.629-2.5 4.544-2.701 4.416-2.97 4.275-3.123 4.1-3.396 3.938-3.563 3.836-3.759 3.631-3.925 3.409-4.134 3.251-4.301 3.102-4.446 2.876-4.668 2.633-4.774 2.441-4.937 2.257-5.086 1.971-5.201 1.766-5.35 1.502-5.41 1.237-5.568 0.951-5.73 0.755-5.769 0.427-5.841 0.098-5.973h-50.048l-0.060 3.337-0.158 3.238-0.324 3.23-0.482 3.123-0.525 3.127-0.695 3.029-0.815 2.97-0.892 2.914-1.020 2.863-1.165 2.761-1.237 2.645-1.378 2.615-1.502 2.539-1.609 2.385-1.702 2.338-1.766 2.223-1.916 2.125-2.027 2.014-2.133 1.869-2.185 1.801-2.304 1.643-2.453 1.54-2.5 1.429-2.564 1.276-2.718 1.169-2.769 1.007-2.889 0.849-2.931 0.687-3.098 0.58-3.085 0.422-3.251 0.213-3.311 0.102-3.307-0.102-3.196-0.213-3.153-0.422-3.038-0.58-2.987-0.687-2.88-0.849-2.769-1.007-2.671-1.169-2.611-1.276-2.509-1.429-2.398-1.54-2.351-1.643-2.189-1.801-2.125-1.869-1.98-2.014-1.916-2.125-1.818-2.223-1.707-2.338-1.583-2.402-1.434-2.539-1.391-2.615-1.28-2.65-1.126-2.756-1.062-2.863-0.909-2.918-0.794-2.965-0.7-3.029-0.533-3.119-0.427-3.127-0.32-3.23-0.213-3.238-0.055-3.337 0.111-2.65 0.213-2.615 0.427-2.594 0.533-2.513 0.751-2.483 0.798-2.372 1.011-2.398 1.126-2.287 1.229-2.24 1.335-2.176 1.502-2.112 1.6-2.005 1.711-1.975 1.754-1.869 1.924-1.835 1.975-1.69 2.022-1.668 2.138-1.527 2.236-1.493 2.295-1.382 2.342-1.267 2.398-1.161 2.458-1.101 2.505-0.96 2.509-0.905 2.628-0.747 2.633-0.708 2.628-0.533 2.675-0.427 2.658-0.311 2.722-0.166 2.671-0.085h444.676v-49.711h-0.013zM938.654 225.643l-454.191 0.192-9.327 0.708-9.284 1.045-9.062 1.549-8.96 1.894-8.751 2.338-8.644 2.765-8.425 3.115-8.201 3.469-8.050 3.866-7.779 4.164-7.581 4.57-7.306 4.885-7.043 5.231-6.765 5.534-6.513 5.845-6.182 6.123-5.92 6.434-5.547 6.724-5.228 6.938-4.908 7.279-4.54 7.471-4.134 7.735-3.792 7.957-3.36 8.158-2.932 8.384-2.582 8.666-2.127 8.747-1.654 9.033-1.172 9.109-0.752 9.314-0.267 9.455 0.267 9.54 0.635 9.37 1.169 9.335 1.552 9.22 1.981 9.126 2.402 8.964 2.826 8.794 3.202 8.704 3.574 8.431 3.965 8.269 4.375 8.060 4.687 7.842 5.070 7.587 5.389 7.316 5.698 7.096 6.092 6.786 6.337 6.472 6.675 6.2 6.983 5.83 7.257 5.516 7.517 5.143 7.783 4.773 8.111 4.403 8.268 3.974 8.596 3.552 8.794 3.186 9.020 2.7 9.233 2.223 9.395 1.751 9.604 1.337 9.818 0.747 9.975 0.262 10.027-0.209 9.813-0.747 9.596-1.217 9.446-1.703 9.216-2.118 9.075-2.614 8.806-3.022 8.521-3.447 8.375-3.821 8.055-4.239 7.851-4.59 7.518-4.982 7.296-5.356 6.985-5.729 6.673-5.975 6.391-6.349 6.076-6.682 5.769-6.999 5.385-7.26 5.124-7.533 4.685-7.794 4.378-8.107 4.002-8.307 3.563-8.538 3.268-8.742 2.769-8.964 2.462-9.169 1.971-9.335 1.545-9.498 1.165-9.707 0.64-9.809 0.269-9.963h-50.031l-0.265 6.886-0.469 6.788-0.811 6.788-1.126 6.724-1.335 6.635-1.66 6.575-1.877 6.464-2.189 6.349-2.458 6.212-2.709 6.148-2.944 5.939-3.247 5.837-3.524 5.602-3.699 5.491-3.989 5.303-4.22 5.090-4.527 4.826-4.745 4.614-4.958 4.403-5.239 4.145-5.491 3.873-5.734 3.597-5.918 3.287-6.174 3.021-6.391 2.704-6.618 2.334-6.818 2.065-7.1 1.647-7.296 1.326-7.475 0.952-7.731 0.53-7.945 0.161-7.945-0.161-7.791-0.635-7.518-1.012-7.309-1.374-7.083-1.752-6.882-2.118-6.665-2.439-6.391-2.76-6.182-3.077-5.971-3.391-5.709-3.657-5.495-3.925-5.228-4.19-4.954-4.454-4.777-4.719-4.536-4.881-4.209-5.090-3.995-5.299-3.736-5.517-3.416-5.675-3.251-5.777-2.935-5.935-2.668-6.106-2.401-6.199-2.127-6.315-1.812-6.349-1.597-6.473-1.274-6.528-1.019-6.579-0.751-6.626-0.425-6.63-0.158-6.673 0.214-6.007 0.474-5.978 0.853-5.973 1.127-5.901 1.447-5.922 1.755-5.845 2.082-5.786 2.345-5.675 2.612-5.559 2.939-5.508 3.194-5.363 3.416-5.244 3.728-5.086 3.95-4.992 4.217-4.77 4.412-4.612 4.638-4.48 4.912-4.237 5.119-3.981 5.262-3.836 5.498-3.558 5.706-3.277 5.914-3.072 6.084-2.769 6.238-2.539 6.387-2.172 6.613-1.89 6.72-1.613 6.878-1.212 7.040-0.9 7.142-0.593 7.258-0.145h444.779v-50.189h-0.013zM185.383 519.49h-100.049v-50.216h50.508v-249.647h50.023l-0.481 299.863z" />
<glyph unicode="&#xe902;" glyph-name="accord" d="M722.709 634.776c0.171-0.075 0.316-0.139 0.469-0.139l38.349-16c-0.695-2.133-0.695-4.587-0.695-7.093v-37.032l0.038-0.012v-233.606c-17.442-13.171-40.533-16.691-61.175-9.6l-6.775 2.509c20.962 41.225 13.175 91.733-19.891 125.495l-67.447 67.447-84.378-42.458-11.733-6.029c-10.295-5.333-21.653-7.838-32.695-7.838-18.453 0-36.962 7.091-50.828 20.958-16.374 16.324-23.84 39.789-20.267 62.563 3.893 22.72 18.454 42.668 39.095 52.961l20.267 9.974 97.067 48.694c24.533 12.427 53.018 13.12 78.242 2.827l81.391-33.388c0.435 0 0.725-0.128 0.969-0.234zM597.321 291.832l-125.495 123.418c-4.642 2.825-6.775 7.467-6.775 12.373 0 2.505 0.747 4.958 2.509 7.467-25.229 2.133-49.068 13.171-66.829 30.933-24.214 24.533-35.574 59.414-30.24 93.175 6.027 34.88 27.734 64.001 58.294 79.308l5.653 2.933c-24.16 13.173-53.707 15.307-80 4.267l-91.362-37.707v-298.673c0-1.067 0-2.133-0.373-3.2 22.080-6.771 41.974-17.813 59.041-33.438l78.241-70.775c14.24-13.867 32.695-20.642 51.2-20.642 19.2 0 38.4 7.147 52.962 21.709 6.771 6.72 11.733 14.558 15.309 23.091l-126.938 124.429c-4.64 2.829-6.773 7.791-6.773 12.429 0 3.895 1.44 7.842 4.64 10.667l133.709-133.709c19.895-1.067 40.162 6.4 55.467 21.333 8.533 8.533 14.562 18.88 17.762 30.242v0.371zM659.187 345.169c-2.825-5.705-6.4-10.667-11.038-15.305-13.867-13.867-30.242-21.709-47.309-23.095l-128.375 128.004h4.267c17.067 0 34.133 4.267 49.067 11.733l11.362 6.025 61.175 30.933 49.813-49.813c23.467-23.731 27.413-60.373 11.038-88.482zM112 282.624h88.908c14.72 0 26.667 11.947 26.667 26.667v302.244c0 14.72-11.947 26.667-26.667 26.667h-88.908c-14.72 0-26.667-11.947-26.667-26.667v-302.244c0-14.72 11.947-26.667 26.667-26.667zM912.009 282.624h-88.909c-14.72 0-26.667 11.947-26.667 26.667v302.244c0 14.72 11.947 26.667 26.667 26.667h88.909c14.72 0 26.667-11.947 26.667-26.667v-302.244c0-14.72-11.947-26.667-26.667-26.667z" />
<glyph unicode="&#xe903;" glyph-name="arrow-right" d="M511.996 768.683l342.016-342.016-342.016-342.016-59.989 59.989 237.995 240h-520.022v84.011h520.022l-237.995 240 59.989 60.032z" />
<glyph unicode="&#xe904;" glyph-name="arrow-short-down" d="M708.011 572.672l59.989-59.989-256-256-256 256 59.989 59.989 196.011-196.011 196.011 196.011z" />
<glyph unicode="&#xe905;" glyph-name="arrow-short-left" d="M658.010 622.678l-196.011-196.011 196.011-196.011-59.989-59.989-256 256 256 256 59.989-59.989z" />
<glyph unicode="&#xe906;" glyph-name="arrow-short-right" d="M425.99 682.667l255.999-256-255.999-256-59.99 59.989 196.010 196.011-196.010 196.011 59.99 59.989z" />
<glyph unicode="&#xe907;" glyph-name="arrow-short-up" d="M512 596.651l256-256-59.989-59.989-196.011 196.011-196.011-196.011-59.989 59.989 256 256z" />
<glyph unicode="&#xe908;" glyph-name="atom" d="M851.093 815.787c-9.975 4.053-21.44 1.867-29.069-5.813l-47.305-47.307c-73.92 58.293-165.602 90.667-262.72 90.667-235.253 0-426.667-191.413-426.667-426.667 0-41.651 6.133-83.145 18.24-123.255 4.32-14.293 19.467-22.076 33.227-17.809 14.080 4.211 22.080 19.145 17.813 33.225-10.56 35.093-15.947 71.36-15.947 107.84 0 205.867 167.467 373.333 373.333 373.333 82.718 0 160.853-27.040 224.533-75.52l-38.933-38.933c-7.629-7.627-9.92-19.093-5.815-29.067 4.16-9.973 13.867-16.48 24.64-16.48h124.429c14.72 0 26.667 11.947 26.667 26.667v124.427c0.051 10.827-6.455 20.533-16.427 24.693zM920.431 549.921c-4.211 14.080-19.093 22.24-33.225 17.813-14.080-4.213-22.080-19.147-17.813-33.227 10.56-35.094 15.945-71.361 15.945-107.841 0-205.867-167.467-373.333-373.333-373.333-82.718 0-160.852 27.042-224.532 75.52l38.933 38.933c7.627 7.629 9.92 19.093 5.813 29.069-4.16 9.971-13.867 16.478-24.64 16.478h-124.48c-14.72 0-26.667-11.947-26.667-26.667v-124.425c0-10.773 6.507-20.535 16.48-24.64 9.92-4.053 21.387-1.869 29.067 5.811l47.307 47.309c73.92-58.347 165.6-90.722 262.719-90.722 235.255 0 426.667 191.415 426.667 426.667 0 41.655-6.131 83.149-18.24 123.254zM352.162 266.829c-34.141 34.18-15.929 97.536 26.061 159.859-41.99 62.31-60.203 125.654-26.061 159.871 34.248 34.172 97.579 15.932 159.864-26.049 62.31 42.002 125.653 60.231 159.868 26.051 34.142-34.179 15.932-97.538-26.061-159.865 41.993-62.31 60.203-125.653 26.061-159.872-37.030-37.030-102.417-12.207-159.535 26.283-62.357-42.121-125.9-60.574-160.197-26.278zM389.868 304.482c-6.496 6.528-1.768 36.237 22.815 77.342 8.354-9.668 17.145-19.119 26.25-28.224 8.439-8.448 18.022-17.323 28.416-26.189-41.132-24.623-70.879-29.397-77.481-22.929zM476.642 391.254c12.113-12.113 23.957-22.788 35.379-32.145 11.418 9.357 23.275 20.032 35.392 32.145 12.117 12.117 22.797 23.97 32.158 35.388-9.361 11.418-20.041 23.266-32.158 35.383-11.738 11.733-23.223 22.118-34.313 31.262-16.115-12.612-29.436-24.222-36.459-31.258-12.117-12.117-22.797-23.966-32.158-35.388 9.361-11.422 20.041-23.27 32.158-35.388zM634.189 304.478c-6.558-6.455-36.271-1.702-77.338 22.835 9.69 8.371 19.157 17.173 28.271 26.287 9.105 9.109 17.894 18.56 26.249 28.228 24.585-41.114 29.312-70.818 22.818-77.35zM634.189 548.802c6.49-6.558 1.754-36.234-22.78-77.284-8.363 9.685-17.169 19.149-26.287 28.267-8.815 8.815-17.954 17.336-27.298 25.451 32.465 20.8 64.401 35.267 76.365 23.566zM438.933 499.789c9.101 9.101 18.543 17.884 28.203 26.232-41.004 24.514-70.644 29.266-77.268 22.778-6.491-6.524-1.753-36.212 22.783-77.273 8.364 9.681 17.164 19.145 26.282 28.262z" />
<glyph unicode="&#xe909;" glyph-name="base" d="M572.514-0h-121.033c-33.668 0-63.44 22.827-70.73 54.345l-14.246 60.322c-22.482 9.493-44.073 21.491-64.496 35.785l-61.603-18.56c-32.944-9.707-68.614 3.631-85.142 31.791l-60.267 99.627c-16.806 28.587-11.185 63.787 13.467 85.918l47.857 41.971c-1.28 11.947-1.892 23.842-1.892 35.469s0.612 23.518 1.892 35.469l-47.523 41.702c-24.986 22.455-30.607 57.602-14.023 85.815l60.768 100.373c16.305 27.733 52.031 41.12 84.752 31.413l61.77-18.613c20.423 14.293 41.958 26.293 64.496 35.787l14.246 60.427c7.234 31.467 37.006 54.293 70.674 54.293h121.033c33.668 0 63.441-22.827 70.729-54.347l14.246-60.32c22.481-9.493 44.075-21.493 64.499-35.787l61.602 18.56c32.943 9.76 68.612-3.68 85.141-31.787l60.267-99.627c16.806-28.587 11.183-63.787-13.466-85.92l-47.859-41.971c1.225-12.002 1.89-23.842 1.89-35.469s-0.61-23.522-1.89-35.469l47.859-42.022c24.593-22.135 30.272-57.335 13.687-85.547l-60.766-100.373c-16.307-27.733-51.977-41.122-84.753-31.415l-61.769 18.611c-20.425-14.293-41.963-26.291-64.499-35.785l-14.246-60.429c-7.287-31.411-37.060-54.238-70.673-54.238zM309.355 225.494c8.459 0 16.806-2.773 23.539-8.055 24.151-18.987 50.473-33.651 78.297-43.409 11.797-4.16 20.591-13.76 23.373-25.549l18.53-78.558 119.42 1.173 16.862 77.385c2.782 11.733 11.575 21.389 23.373 25.549 27.823 9.813 54.148 24.422 78.298 43.409 9.681 7.629 22.758 9.975 34.667 6.455l80.081-24.158 58.317 98.129-60.655 53.282c-9.126 8-13.466 19.785-11.631 31.467 2.338 14.933 3.507 29.76 3.507 44.053s-1.169 29.12-3.507 44.053c-1.835 11.682 2.505 23.467 11.631 31.467l61.602 54.080-60.821 98.133-78.524-24.907c-11.964-3.573-25.041-1.173-34.667 6.453-24.149 18.987-50.475 33.653-78.298 43.413-11.797 4.16-20.591 13.76-23.373 25.547l-18.53 78.56-119.42-1.173-16.862-77.387c-2.782-11.733-11.575-21.387-23.373-25.547-27.824-9.813-54.146-24.427-78.297-43.413-9.683-7.627-22.704-10.027-34.669-6.453l-80.078 24.16-58.932-99.2 61.324-52.16c9.126-8 13.467-19.785 11.631-31.467-2.337-14.933-3.506-29.76-3.506-44.053s1.169-29.12 3.506-44.053c1.836-11.678-2.504-23.467-11.631-31.467l-61.658-54.187 60.823-98.133 78.519 24.909c3.673 1.118 7.401 1.651 11.13 1.651zM511.962 462.23c-85.586 0-185.475 18.615-185.475 71.094s99.944 71.093 185.475 71.093c85.589 0 185.476-18.613 185.476-71.093 0-52.479-99.887-71.094-185.476-71.094zM511.915 408.896c-80.858 0-144.019 13.44-185.477 37.811v-19.998c0-52.48 99.944-71.095 185.477-71.095 85.585 0 185.472 18.615 185.472 71.095v19.998c-41.455-24.371-104.619-37.811-185.472-37.811zM326.439 340.037c41.458-24.371 104.618-37.811 185.476-37.811s144.017 13.44 185.476 37.811v-19.998c0-52.48-99.891-71.095-185.476-71.095-85.532 0-185.476 18.615-185.476 71.095v19.998z" />
<glyph unicode="&#xe90a;" glyph-name="book" d="M689.796 675.509v-177.772c-137.233 0-248.866-111.633-248.922-248.922 0-69.658 28.804-132.595 75.046-177.771h-323.914c-58.671 0-106.673 48.004-106.673 106.675v568.941c0 29.495 12.108 56.163 31.309 75.364s46.189 31.309 75.365 31.309h391.119c19.575 0 35.575-16.001 35.575-35.575v-106.673h35.52c19.575 0 35.575-16.001 35.575-35.575zM156.431 746.661c0-19.575 16.001-35.576 35.576-35.576v0.053h355.594v71.098h-355.594c-19.575 0-35.576-16.001-35.576-35.575zM838.016 150.942l90.295-90.3c13.871-13.867 13.871-36.373-0.051-50.24-13.922-13.871-36.429-13.871-50.295 0l-90.3 90.295c-28.109-18.611-61.709-29.598-97.873-29.598-98.031 0-177.771 79.735-177.771 177.771 0 98.031 79.74 177.771 177.822 177.715 98.035 0 177.775-79.735 177.775-177.771 0-36.16-10.991-69.764-29.602-97.873zM583.117 248.871c0-58.833 47.846-106.675 106.675-106.675s106.675 47.842 106.675 106.675c0 58.829-47.846 106.671-106.675 106.671s-106.675-47.842-106.675-106.671z" />
<glyph unicode="&#xe90b;" glyph-name="brain" d="M275.643 628.8c18.456-2.412 33.158-16.14 33.158-32.105 0-19.627 15.947-35.573 35.574-35.573 19.68 0 35.573 15.947 35.573 35.573 0 45.374-31.164 84.018-74.404 97.992-0.070 1.335-0.105 2.68-0.105 4.032 0 46.027 42.56 83.467 94.827 83.467 33.548 0 65.015-16.107 81.975-42.080 4.655-7.078 11.405-11.973 18.901-14.376 14.891-4.872 31.689 0.664 40.678 14.376 16.96 25.973 48.375 42.080 81.975 42.080 52.267 0 94.827-37.44 94.827-83.467 0-1.366-0.034-2.722-0.107-4.066-43.268-13.958-74.462-52.616-74.462-98.011 0-57.12 49.387-103.574 110.080-103.574 19.682 0 35.575 15.949 35.575 35.574 0 19.627-15.949 35.573-35.575 35.573-21.065 0-38.933 14.88-38.933 32.48 0 15.963 14.656 29.688 33.139 32.104l0.205-0.001c1.685 0.006 3.358 0.133 5.009 0.373l0.58 0.004c62.562 0 113.442-45.067 113.442-100.48 0-33.759-19.2-65.119-51.307-83.892-8.96-5.227-15.147-14.080-17.067-24.213s0.747-20.642 7.198-28.693c15.573-19.469 23.842-42.722 23.842-67.2 0-50.402-35.895-95.095-89.387-111.202-18.027-5.44-28.693-24-24.32-42.347 1.331-5.495 2.027-11.2 2.027-16.533 0-46.029-42.56-83.469-94.827-83.469-33.549 0-65.015 16.107-81.975 42.082-6.665 10.125-17.609 15.765-28.89 16.043-4.459 0.111-8.969-0.614-13.286-2.227-6.869-2.551-13.013-7.236-17.344-13.815-16.96-25.975-48.371-42.082-81.972-42.082-47.142 0-86.388 30.46-93.631 70.204 5.161-0.516 10.996-0.87 17.256-0.87 21.707 0 48.64 4.318 70.347 21.333 15.627 12.211 34.292 35.678 34.292 77.918 0 65.813-37.758 103.573-103.572 103.573-19.68 0-35.573-15.945-35.573-35.571s15.947-35.575 35.573-35.575c26.72 0 32.48-5.76 32.48-32.478 0-16.375-5.227-20.48-6.933-21.815-10.293-8.107-34.933-7.091-48.373-3.891-6.452 1.596-12.929 1.306-18.856-0.521l-0.13 0.043c-53.44 16.107-89.387 60.8-89.387 111.198 0 24.482 8.267 47.68 23.84 67.2 6.453 8.055 9.067 18.56 7.2 28.693-1.92 10.133-8.16 18.987-17.067 24.213-32.16 18.722-51.307 50.133-51.307 83.895 0 55.413 50.88 100.48 113.44 100.48l0.477-0.003c1.686-0.247 3.397-0.373 5.121-0.373l0.178 0.001zM512.013 40.414c30.101-25.779 69.534-40.414 111.723-40.414 91.52 0 165.918 69.333 165.918 154.509v1.545c67.895 31.522 111.735 96.162 111.735 168.538 0 28.318-6.562 55.625-19.255 80.478 35.895 32 56.533 76.16 56.533 123.574 0 83.321-64.192 152.951-149.013 168.385l0.009 1.745c0 85.227-74.398 154.56-165.918 154.56-42.21 0-81.66-14.619-111.744-40.428-30.101 25.789-69.542 40.428-111.735 40.428-91.52 0-165.92-69.333-165.974-154.614l0.009-1.648c-84.799-15.452-148.968-85.072-148.968-168.376 0-47.415 20.64-91.575 56.533-123.575-12.64-24.853-19.253-52.105-19.253-80.478 0-72.427 43.84-137.067 111.734-168.533v-1.549c0-85.227 74.4-154.56 165.92-154.56 42.199 0 81.644 14.613 111.745 40.414zM472.013 241.067c2.133-0.747 4.322-1.067 6.507-1.067 6.882 0 13.44 3.358 17.173 9.225l120 190.507c3.733 5.867 3.789 13.227 0.269 19.2s-10.189 9.655-17.387 9.655h-50.082l16.533 105.12c1.387 8.747-3.785 17.28-12.425 20.533-8.64 3.2-18.509 0.427-23.842-6.88l-119.999-165.066c-4.213-5.815-4.747-13.389-1.28-19.682 3.467-6.238 10.293-10.185 17.707-10.185h50.665l-17.173-130.987c-1.173-8.96 4.373-17.442 13.333-20.373z" />
<glyph unicode="&#xe90c;" glyph-name="case" d="M618.615 608.006c-19.622 0-35.571 15.946-35.571 35.572v53.331h-142.234v-53.331c0-19.626-15.946-35.572-35.572-35.572s-35.572 15.946-35.572 35.572v53.331c0 39.199 31.892 71.091 71.093 71.091h142.234c39.198 0 71.091-31.892 71.091-71.091v-53.331c0.107-19.679-15.842-35.572-35.469-35.572zM725.308 394.676v-32.691c0-14.558-12.105-26.667-26.662-26.667-14.562 0-26.667 12.109-26.667 26.667v32.691h-319.988v-32.691c0-14.558-12.106-26.667-26.666-26.667s-26.666 12.109-26.666 26.667v32.691h-213.325v-239.991c0-54.025 43.732-97.754 97.756-97.754h657.734c54.025 0 97.758 43.729 97.758 97.754v239.991h-213.274zM840.879 661.334h-657.789c-54.025 0-97.756-43.732-97.756-97.809v-115.571h213.325v44.48c0 14.558 12.106 26.665 26.666 26.665s26.666-12.108 26.666-26.665v-44.425h319.988v44.425c0 14.558 12.105 26.665 26.667 26.665 14.558 0 26.662-12.108 26.662-26.665v-44.425h213.329v115.569c0 54.025-43.733 97.756-97.758 97.756z" />
<glyph unicode="&#xe90d;" glyph-name="Check" d="M383.995 248.662l452.012 452.011 59.989-59.989-512.001-512-237.995 237.995 59.989 59.989 178.005-178.005z" />
<glyph unicode="&#xe90e;" glyph-name="Close" d="M809.988 664.662l-237.995-237.995 237.995-237.995-59.989-59.989-237.995 237.995-237.994-237.995-59.989 59.989 237.994 237.995-237.994 237.995 59.989 59.989 237.994-237.995 237.995 237.995 59.989-59.989z" />
<glyph unicode="&#xe90f;" glyph-name="cloud" d="M631.253 789.6c-25.173 39.147-70.451 63.734-119.253 63.734-61.811 0-115.893-39.36-133.813-94.454-45.334-8.96-79.52-47.734-79.52-93.974 0-52.96 44.747-96.001 99.734-96.001h210.986c63.949 0 115.951 49.974 115.951 111.414 0 54.080-40.269 99.574-94.084 109.28zM485.333 311.126c0-14.72 11.947-26.667 26.667-26.667s26.667 11.947 26.667 26.667v62.251h266.671v-53.333c0-14.72 11.947-26.667 26.667-26.667s26.667 11.947 26.667 26.667v80c0 14.72-11.947 26.667-26.667 26.667h-293.338v44.416c0 14.72-11.947 26.667-26.667 26.667s-26.667-11.947-26.667-26.667v-44.416h-293.333c-14.72 0-26.667-11.947-26.667-26.667v-80c0-14.72 11.947-26.667 26.667-26.667s26.667 11.947 26.667 26.667v53.333h266.666v-62.251zM245.334 195.542c0-29.457-23.878-53.333-53.333-53.333s-53.334 23.876-53.334 53.333c0 29.457 23.878 53.333 53.334 53.333s53.333-23.876 53.333-53.333zM165.334 106.624h53.334c44.107 0 80-35.891 80-80 0-14.72-11.947-26.667-26.667-26.667h-160.001c-14.72 0-26.667 11.947-26.667 26.667 0 44.109 35.893 80 80 80zM512 142.208c29.457 0 53.333 23.876 53.333 53.333s-23.876 53.333-53.333 53.333c-29.457 0-53.333-23.876-53.333-53.333s23.876-53.333 53.333-53.333zM485.333 106.624h53.333c44.109 0 80-35.891 80-80 0-14.72-11.947-26.667-26.667-26.667h-160c-14.72 0-26.667 11.947-26.667 26.667 0 44.109 35.895 80 80 80zM832 142.208c29.457 0 53.333 23.876 53.333 53.333s-23.876 53.333-53.333 53.333c-29.457 0-53.333-23.876-53.333-53.333s23.876-53.333 53.333-53.333zM805.333 106.624h53.333c44.109 0 80-35.891 80-80 0-14.72-11.947-26.667-26.667-26.667h-160c-14.72 0-26.667 11.947-26.667 26.667 0 44.109 35.895 80 80 80z" />
<glyph unicode="&#xe910;" glyph-name="cloudapp" d="M618.675 533.335h-231.092c-58.827 0-106.667 47.84-106.667 106.666 0 51.84 37.173 95.147 86.24 104.693 18.453 63.2 77.332 108.64 144.852 108.64 53.282 0 102.613-28.373 129.549-73.333 58.078-10.613 101.547-61.6 101.547-122.24 0-68.586-55.842-124.426-124.429-124.426zM743.091 284.45c-19.627 0-35.571 15.945-35.571 35.571v71.095h-391.093v-71.095c0-19.627-15.893-35.571-35.573-35.571s-35.52 15.945-35.52 35.571v71.095c0 39.198 31.893 71.091 71.093 71.091h391.093c39.198 0 71.091-31.893 71.091-71.091v-71.095c0.055-19.627-15.838-35.571-35.52-35.571zM511.991 400c-19.627 0-35.575 15.949-35.575 35.575v115.571c0 19.627 15.949 35.52 35.575 35.52s35.571-15.947 35.571-35.573v-115.573c0-19.571-15.945-35.52-35.571-35.52zM396.426 355.542h-231.092c-44.107 0-80-35.891-80-80v-195.571c0-44.109 35.893-80 80-80h231.092c44.108 0 79.999 35.891 79.999 80v195.571c0 44.109-35.891 80-79.999 80zM396.426 53.304h-231.092c-14.667 0-26.667 11.947-26.667 26.667v169.387h284.426v-169.387c0-14.72-11.947-26.667-26.667-26.667zM858.675 355.542h-231.091c-44.109 0-80-35.891-80-80v-195.571c0-44.109 35.891-80 80-80h231.091c44.109 0 80 35.891 80 80v195.571c0 44.109-35.891 80-80 80zM858.675 53.304h-231.091c-14.669 0-26.667 11.947-26.667 26.667v169.387h284.425v-169.387c0-14.72-11.998-26.667-26.667-26.667z" />
<glyph unicode="&#xe911;" glyph-name="communication" d="M277.174 500.907c3.947-2.082 8.267-3.149 12.587-3.149 5.173 0 10.347 1.549 14.827 4.48l88.747 59.149c7.307 4.853 15.84 7.467 24.64 7.467h280.693c34.347 0 62.242 27.947 62.242 62.24v160c0 34.347-27.947 62.24-62.242 62.24h-373.333c-34.293 0-62.24-27.893-62.24-62.24v-266.667c0-9.813 5.44-18.882 14.080-23.52zM280.906 248.905c-58.827 0-106.667 47.842-106.667 106.667 0 58.829 47.84 106.667 106.667 106.667s106.667-47.838 106.667-106.667c0-58.825-47.84-106.667-106.667-106.667zM743.095 248.905c-58.829 0-106.667 47.842-106.667 106.667 0 58.829 47.838 106.667 106.667 106.667 58.825 0 106.667-47.838 106.667-106.667 0-58.825-47.842-106.667-106.667-106.667zM112-0h337.762c14.72 0 26.667 11.947 26.667 26.667v53.333c0 53.922-43.84 97.762-97.762 97.762h-195.573c-53.92 0-97.76-43.84-97.76-97.762v-53.333c0-14.72 11.947-26.667 26.667-26.667zM912-0h-337.762c-14.72 0-26.667 11.947-26.667 26.667v53.333c0 53.922 43.84 97.762 97.762 97.762h195.571c53.922 0 97.762-43.84 97.762-97.762v-53.333c0-14.72-11.947-26.667-26.667-26.667z" />
<glyph unicode="&#xe912;" glyph-name="Date-range" d="M809.984 84.651v470.016h-596.010v-470.016h596.010zM809.984 768.683c45.995 0 86.016-40.021 86.016-86.016v-598.016c0-45.995-40.021-84.011-86.016-84.011h-596.010c-48 0-86.016 38.016-86.016 84.011v598.016c0 45.995 38.016 86.016 86.016 86.016h41.984v84.011h86.016v-84.011h340.010v84.011h86.016v-84.011h41.984zM726.016 468.651v-84.011h-86.016v84.011h86.016zM553.984 468.651v-84.011h-84.011v84.011h84.011zM384.001 468.651v-84.011h-86.016v84.011h86.016z" />
<glyph unicode="&#xe913;" glyph-name="file" d="M256 853.334c-46.933 0-84.907-38.4-84.907-85.333l-0.427-682.667c0-46.933 37.973-85.333 84.907-85.333h512.427c46.933 0 85.333 38.4 85.333 85.333v512l-256 256h-341.333zM554.667 554.667v234.667l234.667-234.667h-234.667z" />
<glyph unicode="&#xe914;" glyph-name="green" d="M876.599 846.75c10.347-1.385 20.587-8.84 23.68-18.746s1.813-20.929-5.867-27.852c-28.749-25.828-35.469-54.479-42.564-84.888-6.72-28.758-13.709-58.527-39.629-81.853-21.922-19.651-52.749-30.994-83.793-30.994-2.505 0-5.013 0.107-7.518 0.266-13.282 0.799-25.711 3.941-37.069 8.627-76.058-75.302-78.195-156.624-78.246-160.776 0-0.572-0.154-1.075-0.303-1.574-0.119-0.388-0.239-0.777-0.286-1.195-0.213-1.809-0.533-3.516-1.118-5.274-0.482-1.438-1.067-2.82-1.813-4.151-0.96-1.758-1.975-3.251-3.255-4.74-0.96-1.067-1.92-2.027-2.987-2.931-1.493-1.276-3.093-2.394-4.907-3.302-1.331-0.636-2.611-1.118-4.053-1.596-0.465-0.154-0.883-0.363-1.297-0.572-0.585-0.294-1.161-0.58-1.847-0.708-1.655-0.265-3.307-0.422-4.907-0.422-3.52 0-6.882 0.905-10.031 2.18-0.401 0.158-0.751 0.384-1.097 0.606-0.252 0.166-0.499 0.329-0.768 0.461-2.24 1.118-4.322 2.449-6.135 4.156-0.589 0.546-1.058 1.152-1.545 1.775-0.175 0.222-0.35 0.448-0.533 0.674-1.387 1.596-2.56 3.302-3.52 5.218-0.542 1.079-0.9 2.163-1.289 3.324-0.034 0.098-0.068 0.196-0.098 0.299-0.137 0.457-0.333 0.883-0.529 1.31-0.265 0.567-0.525 1.139-0.644 1.779-9.015 48.512-31.309 92.129-55.1 127.437-24.909-22.953-57.762-34.722-91.578-34.722-37.549 0-76.005 14.059-105.127 42.018-30.722 29.505-38.269 67.13-45.565 103.498l-0.038 0.189-0.025 0.125c-8.204 40.907-15.961 79.581-53.898 115.97-7.467 7.189-10.080 18.106-6.72 27.905 3.414 9.799 12.214 16.722 22.562 17.787l4.373 0.426c84.806 8.521 190.359 19.119 274.523-61.722 27.469-26.308 44.109-66.569 44.535-107.628 0.213-20.343-3.52-39.622-10.611-57.143 15.787-21.568 31.573-46.651 45.013-74.663 13.175 30.728 34.086 65.663 67.046 99.427-35.575 48.994-29.495 118.332 16.375 159.604 69.018 61.989 155.264 50.699 218.202 42.391zM102.828 426.036c-9.708-0.158-17.495-8.094-17.495-17.788v-328.316c0-4.898 4-8.892 8.907-8.892h84.326c7.947 0 14.934 5.269 17.121 12.885l78.672 276.873c5.067 17.894-4.534 36.693-22.028 43.029-32.215 11.772-81.658 23.326-149.503 22.208zM867.627 230.806c-35.55 0-88.883-22.473-142.221-44.945s-106.675-44.949-142.225-44.949c-71.095 0-151.155 54.426-151.155 54.426s95.791-17.732 151.104-17.732c55.309 0 71.095 18.854 71.095 44.361 0 57.152-89.399 69.901-145.335 77.875-4.89 0.695-9.523 1.357-13.82 2.010-7.582 4.215-14.639 8.303-21.427 12.237-40.179 23.279-70.873 41.067-145.251 47.356-0.533-5.060-1.333-10.065-2.72-15.125l-71.418-251.362c80.912-36.749 220.174-94.955 293.3-94.955 106.671 0 391.117 142.029 391.117 177.498s-35.52 53.308-71.044 53.308z" />
<glyph unicode="&#xe915;" glyph-name="Growth" d="M613.423 848.099c-3.413 3.413-8.478 5.387-12.907 5.227-100.531-1.867-217.757-60.533-292.263-145.759-80.532-2.88-147.732-27.146-189.705-69.066-4.533-4.533-6.293-11.2-4.533-17.387s6.72-10.933 12.96-12.48l75.733-18.133-0.48-0.533c-6.293-7.040-6.027-17.76 0.64-24.48l127.892-127.894c3.467-3.465 8-5.227 12.586-5.227 4.267 0 8.533 1.493 11.893 4.587l0.533 0.482 18.133-75.733c1.493-6.293 6.293-11.251 12.48-12.958 1.6-0.427 3.2-0.695 4.8-0.695 4.64 0 9.173 1.813 12.587 5.227 41.919 41.92 66.188 109.171 69.068 189.706 85.329 74.719 143.889 191.785 145.758 292.21 0.158 4.853-1.762 9.493-5.175 12.907zM911.991 565.382c-2.291 0-4.638 0.32-6.933 0.907l-54.042 14.48c-178.027-429.647-682.008-441.478-735.242-441.478-1.971 0-3.331 0.030-4.035 0.043h-0.010l-0.489 0.009c-14.72 0.375-26.293 12.642-25.92 27.362s12.746 26.667 27.36 25.92l0.223-0.004c6.611-0.094 152.245-2.159 311.508 57.335 180.521 67.371 306.195 183.125 374.701 344.721l-39.757 10.653c-10.402 2.773-18.133 11.573-19.52 22.293-1.387 10.667 3.785 21.173 13.12 26.56l88.273 50.966c2.419 1.86 5.15 3.299 8.064 4.246 11.994 4.519 25.843-0.135 32.461-11.639l53.333-92.372c5.385-9.333 4.638-21.013-1.92-29.547-5.175-6.667-13.013-10.453-21.175-10.453zM858.645 0.005c-19.627 0-35.571 15.945-35.571 35.571v426.662c0 19.627 15.945 35.575 35.571 35.575s35.575-15.949 35.575-35.575v-426.662c0-19.678-15.949-35.571-35.575-35.571zM645.312-0c-19.627 0-35.575 15.949-35.575 35.575v177.758c0 19.627 15.949 35.571 35.575 35.571s35.571-15.945 35.571-35.571v-177.758c0-19.682-15.945-35.575-35.571-35.575zM396.42 35.576c0-19.627 15.946-35.575 35.571-35.575 19.627 0 35.575 15.893 35.575 35.575v71.091c0 19.627-15.949 35.571-35.575 35.571s-35.571-15.945-35.571-35.571v-71.091zM218.657-0c-19.627 0-35.573 15.949-35.573 35.575v17.758c0 19.627 15.946 35.575 35.573 35.575s35.573-15.949 35.573-35.575v-17.758c0-19.682-15.947-35.575-35.573-35.575zM86.074 342.874c5.867 19.627 36.373 118.665 60.266 142.558 28.746 28.801 75.572 28.801 104.426 0 28.8-28.8 28.8-75.627 0-104.427-23.84-23.893-122.932-54.396-142.559-60.262-1.707-0.482-3.413-0.747-5.12-0.747-4.64 0-9.173 1.813-12.533 5.227-4.64 4.587-6.347 11.358-4.48 17.651z" />
<glyph unicode="&#xe916;" glyph-name="idea" d="M541.18 853.334c-172.11 0-312.151-144.587-312.151-322.453 0-19.84-5.44-39.198-16.216-56.905l-78.233-139.789c-4.3-7.147-6.58-15.253-6.58-23.467 0-24.265 19.17-44.053 42.743-44.053h60.876v-81.173c0-43.465 34.298-78.827 76.419-78.827 8.445 0 16.32 1.331 21.605 3.358l74.658 20.907v-104.265c0-14.72 11.605-26.667 25.903-26.667h293.606c14.298 0 25.903 11.947 25.903 26.667v186.133c0 44.851 15.441 90.829 44.715 132.855 38.545 55.411 58.906 119.467 58.906 185.331 0 177.76-139.989 322.347-312.154 322.347v0zM630.242 323.892c0-21.705-17.254-39.462-38.703-39.462h-63.569c-18.654 0-38.703 14.238-38.703 45.867v19.196h140.924v-25.6h0.051zM658.219 429.12c-14.507-12.109-23.834-27.733-26.94-44.109h-142.686c-2.432 16-11.034 30.938-25.229 42.295-38.34 30.933-60.1 77.491-59.064 128 1.71 84.64 70.46 154.667 152.995 155.733 41.809 1.067 81.856-15.627 111.906-46.24 29.687-29.867 45.956-70.027 45.956-112.693 0.051-47.945-20.672-92.749-56.939-122.987v0z" />
<glyph unicode="&#xe917;" glyph-name="lamp" d="M512 730.454c-14.72 0-26.667 11.947-26.667 26.667v69.547c0 14.72 11.947 26.667 26.667 26.667s26.667-11.947 26.667-26.667v-69.547c0-14.72-11.947-26.667-26.667-26.667zM745.643 633.657c-6.827 0-13.653 2.613-18.88 7.787-10.402 10.4-10.402 27.307 0 37.707l49.225 49.227c10.402 10.4 27.307 10.4 37.709 0 10.398-10.4 10.398-27.307 0-37.707l-49.229-49.227c-5.171-5.173-11.998-7.787-18.825-7.787zM842.432 400h69.547c14.72 0 26.667 11.947 26.667 26.667s-11.947 26.667-26.667 26.667h-69.547c-14.72 0-26.667-11.947-26.667-26.667s11.947-26.667 26.667-26.667zM794.816 117.163c-6.827 0-13.653 2.611-18.88 7.787l-49.225 49.225c-10.402 10.402-10.402 27.307 0 37.709 10.398 10.398 27.307 10.398 37.705 0l49.229-49.229c10.398-10.398 10.398-27.307 0-37.705-5.175-5.227-12.002-7.787-18.829-7.787zM210.286 124.95c5.227-5.175 12.053-7.787 18.88-7.787s13.6 2.56 18.827 7.787l49.227 49.225c10.4 10.402 10.4 27.307 0 37.709-10.4 10.398-27.307 10.398-37.707 0l-49.227-49.229c-10.4-10.398-10.4-27.307 0-37.705zM181.547 400h-69.547c-14.72 0-26.667 11.947-26.667 26.667s11.947 26.667 26.667 26.667h69.547c14.72 0 26.667-11.947 26.667-26.667s-11.947-26.667-26.667-26.667zM259.461 641.443c5.227-5.173 12.053-7.787 18.88-7.787s13.653 2.613 18.827 7.787c10.4 10.4 10.4 27.307 0 37.707l-49.227 49.227c-10.4 10.4-27.307 10.4-37.707 0s-10.4-27.307 0-37.707l49.227-49.227zM618.667 106.667v-44.429c0-34.129-28.105-62.238-62.238-62.238h-88.909c-29.811 0-62.187 22.775-62.187 72.533v34.133h213.333zM458.688 669.87c75.038 16 151.838-2.453 210.133-49.76 58.667-47.68 92.105-118.081 92.053-193.439 0-76.8-34.829-147.947-94.933-195.575-24.533-19.2-40.533-44.053-45.495-71.091v-0.375c-0.691 0.375-1.067 0.375-1.758 0.375h-213.334c-0.693 0-1.76 0-2.507-0.32v0.371c-4.96 28.053-19.573 52.267-40.533 67.895-77.493 58.667-113.76 154.667-93.867 251.358 19.573 94.188 96 170.988 190.24 190.561zM618.688 435.576c0-14.558 12.105-26.667 26.667-26.667 14.558 0 26.667 12.053 26.667 26.667 0 83.201-67.895 151.094-151.095 151.094-14.558 0-26.667-12.107-26.667-26.667s12.109-26.667 26.667-26.667c54.029 0 97.762-43.732 97.762-97.761z" />
<glyph unicode="&#xe918;" glyph-name="learn" d="M405.335 497.758c-98.027 0-177.761 79.734-177.761 177.761s79.734 177.814 177.761 177.814c98.025 0 177.761-79.734 177.761-177.761s-79.735-177.815-177.761-177.815zM369.761 231.092c0 38.771 22.774 73.971 58.292 89.6l205.495 90.667c-20.587 9.971-43.678 15.309-68.211 15.309h-320.003c-88.16 0-160.001-71.842-160.001-160.004v-142.238c0-9.92 7.84-17.762 17.76-17.762h337.76v29.495l-12.8 5.705c-35.518 15.629-58.292 50.829-58.292 89.229zM689.762 106.769c-3.678 0-7.305 0.747-10.718 2.24l-222.242 97.758c-9.651 4.267-15.945 13.815-15.945 24.427 0 10.615 6.238 20.16 15.945 24.427l222.242 97.762c6.827 2.987 14.665 2.987 21.491 0l222.242-97.762c9.655-4.267 15.893-13.811 15.893-24.427 0-10.611-6.238-20.16-15.945-24.427l-222.242-97.758c-3.362-1.493-7.040-2.24-10.722-2.24zM722.031 60.216c-10.347-4.535-21.12-6.775-32.213-6.775s-21.867 2.24-32.107 6.72l-145.707 64.107v-24.478c0-21.709 11.358-42.082 29.547-53.175 51.251-31.040 99.733-46.613 148.215-46.613 48.478 0 96.96 15.573 148.211 46.613 18.24 11.093 29.547 31.467 29.547 53.175v24.478l-145.493-64.051z" />
<glyph unicode="&#xe919;" glyph-name="money" d="M891.43 658.782c0.691 5.55 1.707 10.992 1.707 16.702s-0.96 11.152-1.707 16.702l32.013 24.225c7.151 5.39 9.178 15.314 4.642 23.052l-28.706 49.838c-4.484 7.791-14.033 10.992-22.306 7.471l-36.873-15.581c-9.015 6.883-18.62 12.966-29.184 17.395l-4.911 39.167c-1.122 8.911-8.644 15.581-17.609 15.581h-57.523c-8.964 0-16.542-6.67-17.664-15.581l-4.907-39.167c-10.564-4.429-20.169-10.458-29.137-17.342l-36.868 15.581c-8.273 3.468-17.822 0.267-22.306-7.471l-28.762-49.839c-4.48-7.791-2.509-17.662 4.642-23.052l32.017-24.225c-0.695-5.55-1.707-10.992-1.707-16.702s0.96-11.152 1.707-16.702l-32.017-24.225c-7.151-5.39-9.178-15.315-4.642-23.052l28.762-49.839c4.484-7.791 14.033-10.992 22.306-7.47l36.868 15.581c8.969-6.83 18.573-12.913 29.137-17.342l4.907-39.167c1.122-8.912 8.7-15.581 17.664-15.581h57.523c8.964 0 16.542 6.669 17.66 15.581l4.911 39.167c10.564 4.429 20.169 10.458 29.133 17.342l36.873-15.581c8.273-3.468 17.822-0.267 22.306 7.47l28.762 49.839c4.48 7.791 2.509 17.662-4.642 23.052l-32.068 24.172zM759.68 604.302c-39.27 0-71.125 31.856-71.125 71.129s31.855 71.129 71.125 71.129c39.275 0 71.13-31.856 71.13-71.129 0.055-39.273-31.799-71.129-71.13-71.129zM682.47 446.925l-37.939 65.74c-8.802 15.261-27.802 21.824-44.126 15.208l-69.316-27.908c-18.944 15.262-39.433 27.108-61.205 35.379l-10.513 74.010c-2.453 17.396-17.609 30.522-35.216 30.522h-75.825c-17.609 0-32.763-13.126-35.218-30.575l-10.512-74.010c-21.771-8.378-42.528-20.384-60.884-35.325l-69.635 27.908c-16.329 6.51-35.271 0-44.076-15.208l-37.939-65.74c-8.805-15.262-4.963-35.004 8.911-45.837l58.75-45.837c-1.815-11.58-2.722-23.531-2.722-35.537 0-11.9 0.908-23.744 2.668-35.273l-58.803-46.157c-13.767-10.833-17.609-30.519-8.858-45.781l37.939-65.741c8.804-15.206 27.8-21.769 44.129-15.206l69.315 27.908c18.943-15.262 39.433-27.11 61.204-35.379l10.512-74.010c2.455-17.395 17.609-30.524 35.218-30.524h75.825c17.608 0 32.763 13.129 35.216 30.575l10.513 74.010c21.773 8.38 42.53 20.386 60.885 35.328l69.636-27.908c16.431-6.562 35.268-0.055 44.075 15.206l37.939 65.741c8.802 15.262 4.962 35.004-8.913 45.837l-58.748 45.837c1.813 11.631 2.722 23.582 2.722 35.588 0 11.9-0.909 23.748-2.671 35.273l58.803 46.157c13.769 10.778 17.609 30.468 8.858 45.73zM372.876 346.394h26.68c41.673 0 75.61-33.882 75.61-75.61 0-37.141-26.944-67.93-62.27-74.227v-28.011c0-14.729-11.953-26.684-26.68-26.684s-26.68 11.955-26.68 26.684v26.679h-35.591c-14.728 0-26.68 11.951-26.68 26.679s11.953 26.679 26.68 26.679h75.611c12.273 0 22.252 9.98 22.252 22.251 0 12.275-9.978 22.199-22.252 22.199h-26.68c-41.674 0-75.612 33.882-75.612 75.61 0 37.141 26.947 67.93 62.272 74.223v28.015c0 14.729 11.953 26.679 26.68 26.679s26.68-11.951 26.68-26.679v-26.679h35.591c14.729 0 26.679-11.951 26.679-26.679s-11.951-26.679-26.679-26.679h-75.611c-12.273 0-22.252-9.98-22.252-22.251 0.053-12.22 10.032-22.199 22.252-22.199z" />
<glyph unicode="&#xe91a;" glyph-name="play" d="M426.667 234.667l256 192-256 192v-384zM512 853.334c-235.52 0-426.667-191.147-426.667-426.667s191.147-426.667 426.667-426.667c235.52 0 426.667 191.147 426.667 426.667s-191.147 426.667-426.667 426.667zM512 85.334c-188.16 0-341.333 153.173-341.333 341.333s153.173 341.333 341.333 341.333c188.16 0 341.333-153.173 341.333-341.333s-153.173-341.333-341.333-341.333z" />
<glyph unicode="&#xe91b;" glyph-name="puzl" d="M749.222 579.161c19.895-18.136 46.566-29.178 75.742-29.178 70.093 0 125.193 62.942 111.646 135.166-7.791 44.113-43.366 80.705-87.108 89.613-38.78 8.214-74.675-3.2-100.279-26.297v66.836c0 20.963-17.071 38.032-38.033 38.032h-398.296c-20.963 0-38.032-17.069-38.032-38.032v-370.185h109.509c-7.841 18.133-12.109 38.404-12.109 59.046 0 82.519 66.834 149.356 149.356 149.356 82.146 0 149.355-66.836 149.355-149.356 0-20.642-4.267-40.913-12.429-59.046h90.679v134.045zM673.199 113.643c-70.144 0-125.137 62.993-111.855 135.433 7.949 44.006 43.631 80.439 87.211 89.506 38.673 7.949 74.731-3.413 100.497-26.564v97.348h-164.612c30.724 20.48 50.833 54.993 50.833 94.839 0 62.942-50.833 113.776-113.775 113.776s-113.776-50.834-113.776-113.776c0-39.846 20.11-74.359 50.834-94.839h-183.546v-97.348c-20.11 18.244-46.673 29.231-75.851 29.231-70.143 0-125.138-62.942-111.856-135.433 7.948-44.006 43.579-80.384 87.212-89.506 38.672-7.949 74.731 3.413 100.495 26.564v-105.084c0-20.855 17.069-37.922 37.925-37.922h398.191c20.855 0 37.926 17.067 37.926 37.922v105.084c-20.113-18.244-46.673-29.231-75.853-29.231z" />
<glyph unicode="&#xe91c;" glyph-name="search" d="M658.765 207.241c-55.317-40.55-123.452-64.405-196.847-64.405-184.426 0-333.918 149.491-333.918 333.914 0 184.426 149.492 333.918 333.918 333.918 184.422 0 333.914-149.492 333.914-333.918 0-73.395-23.855-141.53-64.405-196.847l149.525-149.525c20.066-20.066 20.066-52.591 0-72.661-20.070-20.066-52.595-20.066-72.661 0l-149.525 149.525zM461.918 245.577c127.915 0 231.172 103.258 231.172 231.172 0 127.917-103.258 231.174-231.172 231.174-127.917 0-231.174-103.257-231.174-231.174 0-127.915 103.257-231.172 231.174-231.172v0z" />
<glyph unicode="&#xe91d;" glyph-name="target" d="M656.435 639.982h77.879c7.091 0 13.862 2.827 18.871 7.787l71.070 71.092c7.62 7.626 9.86 19.093 5.756 29.066-4.16 9.973-13.862 16.48-24.631 16.48h-62.217v62.239c0 10.773-6.502 20.533-16.474 24.639-9.971 4.16-21.431 1.867-29.056-5.76l-71.066-71.092c-4.958-5.013-7.787-11.84-7.787-18.88v-77.945c-0.375-0.335-0.742-0.682-1.101-1.041l-184.516-184.585c-8.589 3.708-18.036 5.76-27.938 5.76-39.079 0-71.067-32-71.067-71.091s31.988-71.091 71.067-71.091c39.078 0 71.066 32 71.066 71.091 0 9.737-1.984 19.029-5.564 27.499l184.644 184.711c0.367 0.366 0.721 0.74 1.062 1.122zM707.691 462.23c-127.369 0-231.010-103.676-231.010-231.087s103.642-231.142 231.010-231.142c127.364 0 231.006 103.676 231.006 231.087s-103.642 231.142-231.006 231.142zM793.045 183.412c10.394-10.402 10.394-27.307 0-37.709-5.227-5.227-11.998-7.787-18.876-7.787s-13.645 2.615-18.871 7.787l-47.663 47.68-47.663-47.68c-5.222-5.227-11.994-7.787-18.871-7.787s-13.649 2.615-18.876 7.787c-10.394 10.402-10.394 27.307 0 37.709l47.663 47.676-47.663 47.68c-10.394 10.398-10.394 27.307 0 37.705 10.398 10.402 27.298 10.402 37.696 0l47.663-47.676 47.659 47.676c10.398 10.402 27.298 10.402 37.696 0 10.394-10.398 10.394-27.307 0-37.705l-47.663-47.68 47.77-47.676zM641.553 549.694l39.083 39.092c13.538-22.773 24.205-47.305 31.667-73.225h-4.638c-17.062 0-33.749-1.44-49.741-4.265-4.267 13.172-9.971 25.971-16.371 38.397zM405.216 106.663c-176.308 0-319.882 143.625-319.882 319.996 0 176.367 143.574 319.991 319.882 319.991 59.339 0 114.784-16.373 162.392-44.799l-39.078-39.092c-36.945 19.52-78.903 30.559-123.313 30.559-147.146 0-266.569-119.464-266.569-266.659 0-147.2 119.423-266.662 266.569-266.662 8.903 0 17.753 0.375 26.656 1.442 4.587-18.133 10.982-35.2 18.82-51.575-14.929-2.133-30.176-3.2-45.477-3.2zM405.21 231.083c-107.694 0-195.502 87.838-195.502 195.567 0 107.732 87.808 195.57 195.502 195.624 24.525 0 47.983-4.64 69.679-13.173l-43.021-43.039c-8.532 2.133-17.435 2.827-26.658 2.827-78.585 0-142.188-63.625-142.188-142.238 0-78.609 63.657-142.234 142.188-142.234 8.157 0 15.994 0.691 23.458 2.133-3.572-17.762-5.332-35.895-5.332-54.4-6.025-0.695-12.102-1.067-18.127-1.067z" />
<glyph unicode="&#xe91e;" glyph-name="team" d="M538.667 716.319c26.048 10.549 44.42 36.089 44.42 65.921 0 39.264-31.829 71.093-71.091 71.093-39.266 0-71.095-31.83-71.095-71.093 0-29.836 18.381-55.378 44.433-65.925v-85.221c0-14.72 11.947-26.667 26.667-26.667s26.667 11.947 26.667 26.667v85.225zM659.153 547.15c-6.827 0-13.653 2.613-18.88 7.787-10.398 10.4-10.398 27.307 0 37.707l57.715 57.669c-10.94 25.891-5.875 56.992 15.189 78.060 27.682 27.68 72.802 27.68 100.535 0 27.733-27.733 27.733-72.853 0-100.587-13.867-13.813-32.107-20.747-50.295-20.747-9.434 0-18.884 1.852-27.721 5.57l-57.715-57.671c-5.175-5.173-12.002-7.787-18.829-7.787zM801.66 453.334c10.547 26.052 36.087 44.429 65.924 44.429 39.262 0 71.091-31.834 71.091-71.095s-31.829-71.095-71.091-71.095c-29.837 0-55.377 18.377-65.924 44.429h-85.171c-14.72 0-26.667 11.947-26.667 26.667s11.947 26.667 26.667 26.667h85.171zM640.273 260.587l57.685-57.638c-10.901-25.877-5.828-56.943 15.219-77.99 13.867-13.815 32.107-20.749 50.295-20.749 18.185 0 36.425 6.933 50.291 20.8 27.733 27.733 27.733 72.853 0 100.587-21.12 21.001-52.254 26.039-78.131 15.091l-57.651 57.604c-10.402 10.402-27.307 10.402-37.709 0-10.398-10.398-10.398-27.307 0-37.705zM485.333 137.020v85.167c0 14.72 11.947 26.667 26.667 26.667s26.667-11.947 26.667-26.667v-85.171c26.048-10.551 44.42-36.092 44.42-65.92 0-39.266-31.829-71.095-71.091-71.095-39.266 0-71.095 31.829-71.095 71.095 0 29.833 18.381 55.377 44.433 65.924zM310.887 125.009c21.058 21.060 26.127 52.143 15.206 78.025l57.596 57.549c10.4 10.402 10.4 27.307 0 37.709-10.4 10.398-27.307 10.453-37.707 0l-57.612-57.566c-25.893 10.901-56.999 5.85-78.069-15.181-27.733-27.733-27.733-72.853 0-100.587 13.867-13.815 32.107-20.749 50.293-20.749s36.427 6.933 50.293 20.8zM222.35 400h85.233c14.72 0 26.667 11.947 26.667 26.667s-11.947 26.667-26.667 26.667h-85.233c-10.548 26.052-36.090 44.429-65.923 44.429-39.264 0-71.093-31.834-71.093-71.095s31.83-71.095 71.093-71.095c29.833 0 55.375 18.377 65.923 44.429zM364.861 547.144c-6.827 0-13.653 2.613-18.88 7.787l-57.724 57.678c-8.826-3.713-18.252-5.57-27.664-5.57-18.187 0-36.427 6.933-50.293 20.747-27.733 27.733-27.733 72.853 0 100.587 27.68 27.68 72.8 27.68 100.533 0 21.134-21.093 26.193-52.244 15.204-78.129l57.651-57.605c10.4-10.4 10.4-27.307 0-37.707-5.173-5.173-12-7.787-18.827-7.787zM512 462.238c-29.385 0-53.333 23.949-53.333 53.335s23.949 53.333 53.333 53.333c29.389 0 53.333-23.947 53.333-53.333 0-29.438-23.945-53.335-53.333-53.335zM538.667 426.667h-53.333c-44.105 0-80-35.891-80-80 0-14.72 11.947-26.667 26.667-26.667h160c14.72 0 26.667 11.947 26.667 26.667 0 44.109-35.891 80-80 80z" />
<glyph unicode="&#xe91f;" glyph-name="about" d="M512 853.334c-235.52 0-426.667-191.147-426.667-426.667s191.147-426.667 426.667-426.667c235.52 0 426.667 191.147 426.667 426.667s-191.147 426.667-426.667 426.667zM554.667 213.334h-85.333v256h85.333v-256zM554.667 554.667h-85.333v85.333h85.333v-85.333z" />
<glyph unicode="&#xe920;" glyph-name="home" d="M426.667 42.667v256h170.667v-256h213.333v341.333h128l-426.667 384-426.667-384h128v-341.333h213.333z" />
<glyph unicode="&#xe921;" glyph-name="school" d="M213.333 376.32v-170.667l298.667-162.987 298.667 162.987v170.667l-298.667-162.987-298.667 162.987zM512 810.667l-469.333-256 469.333-256 384 209.493v-294.827h85.333v341.333l-469.333 256z" />
<glyph unicode="&#xe922;" glyph-name="work" d="M853.333 102.827v494.507l-256 256h-341.333c-46.933 0-84.907-38.4-84.907-85.333l-0.427-682.667c0-46.933 37.973-85.333 84.907-85.333h512.427c19.2 0 36.267 6.4 50.773 17.067l-189.013 189.013c-34.133-22.187-74.24-35.413-117.76-35.413-117.76 0-213.333 95.573-213.333 213.333s95.573 213.333 213.333 213.333c117.76 0 213.333-95.573 213.333-213.333 0-43.52-13.227-83.627-35.413-117.333l163.413-163.84zM384 384c0-70.827 57.173-128 128-128s128 57.173 128 128c0 70.827-57.173 128-128 128s-128-57.173-128-128z" />
<glyph unicode="&#xe923;" glyph-name="lead" d="M512 426.667c58.91 0 106.667 47.757 106.667 106.667s-47.757 106.667-106.667 106.667c-58.91 0-106.667-47.756-106.667-106.667s47.757-106.667 106.667-106.667zM298.672 515.522c0-39.263-31.83-71.092-71.093-71.092s-71.094 31.829-71.094 71.092c0 39.264 31.83 71.093 71.094 71.093s71.093-31.83 71.093-71.093zM263.147 275.576c0 48.691 23.467 92.053 59.36 119.091-14.613 8.853-32 14.187-50.507 14.187h-88.907c-54.027 0-97.76-43.733-97.76-97.758v-17.762c0-14.558 12.107-26.667 26.667-26.667h151.147v8.909zM796.429 444.429c39.262 0 71.091 31.829 71.091 71.092s-31.829 71.093-71.091 71.093c-39.266 0-71.095-31.83-71.095-71.093s31.829-71.092 71.095-71.092zM938.667 293.338v17.758c0 54.029-43.733 97.762-97.707 97.813h-88.909c-18.505 0-35.942-5.333-50.505-14.238 35.895-26.987 59.358-70.4 59.358-119.095v-8.905h151.095c14.558 0 26.667 12.105 26.667 26.667zM414.184 373.334h195.574c53.918 0 97.813-43.895 97.758-97.762v-53.333c0-14.72-11.947-26.667-26.667-26.667h-337.758c-14.72 0-26.667 11.947-26.667 26.667v53.333c0 53.922 43.84 97.762 97.76 97.762z" />
<glyph unicode="&#xe924;" glyph-name="docs" d="M520.905 782.24h-39.091c-11.789 40.853-49.442 71.093-94.24 71.093-44.8 0-82.507-30.24-94.24-71.093h-39.093c-14.56 0-26.667-12.107-26.667-26.667v-53.333c0-34.133 28.107-62.24 62.24-62.24h195.52c34.133 0 62.238 28.107 62.238 62.24v53.333c0 14.56-12.105 26.667-26.667 26.667zM592 746.667h-8.905v-44.427c0-54.027-43.738-97.76-97.762-97.76h-195.573c-54.027 0-97.76 43.733-97.76 97.76v44.427h-8.907c-54.027 0-97.76-43.733-97.76-97.76v-444.427c0-54.080 43.733-97.813 97.76-97.813h234.293c-17.76 38.029-28.427 80-29.493 124.429h-169.227c-14.56 0-26.667 12.105-26.667 26.667 0 14.558 12.107 26.667 26.667 26.667h172.107c3.2 21.705 8.533 42.291 15.627 62.238h-187.733c-14.56 0-26.667 12.105-26.667 26.667s12.107 26.667 26.667 26.667h213.333c13.867 22.771 30.238 43.733 49.442 62.238h-262.775c-14.56 0-26.667 12.109-26.667 26.667 0 14.562 12.107 26.669 26.667 26.669h335.625c40.909 21.333 86.775 34.133 135.471 35.2v98.133c0 54.027-43.738 97.76-97.762 97.76zM458.667 240c0 132.318 107.682 240 240 240s240-107.682 240-240c0-132.318-107.682-240-240-240s-240 107.682-240 240zM689.865 145.438l124.429 142.242c12.958 14.827 11.469 37.227-3.251 50.24-14.827 12.907-37.231 11.362-50.189-3.358l-99.413-113.655-44.215 44.215c-13.918 13.867-36.425 13.918-50.291 0-13.867-13.922-13.867-36.429 0-50.295l71.095-71.095c6.665-6.665 15.731-10.398 25.118-10.398h1.173c9.813 0.32 19.093 4.693 25.545 12.105z" />
</font>
</defs>
</svg>
